首页 收藏 QQ群
 网站导航
开启辅助访问

QQ登录

只需一步,快速开始

扫一扫,访问微社区

立即注册 找回密码
查看: 426497|回复: 1890
[4K视频]

2016 创维 UHD 4K 演示片 - 圣托里尼岛美食之旅 [2160P/MP4/796MB]

  [复制链接]
发表于 2016-9-27 11:00 | 显示全部楼层 |阅读模式
2016 创维 UHD 4K 演示片 - 圣托里尼岛美食之旅 [2160P/MP4/796MB]
SKYWORTH _UHD_4K_DEMO_Santorini FOOD_2016_photo_1.jpg SKYWORTH _UHD_4K_DEMO_Santorini FOOD_2016_photo_2.jpg SKYWORTH _UHD_4K_DEMO_Santorini FOOD_2016_photo_3.jpg SKYWORTH _UHD_4K_DEMO_Santorini FOOD_2016_photo_4.jpg SKYWORTH _UHD_4K_DEMO_Santorini FOOD_2016_photo_5.jpg SKYWORTH _UHD_4K_DEMO_Santorini FOOD_2016_photo_6.jpg SKYWORTH _UHD_4K_DEMO_Santorini FOOD_2016_photo_7.jpg SKYWORTH _UHD_4K_DEMO_Santorini FOOD_2016_photo_8.jpg SKYWORTH _UHD_4K_DEMO_Santorini FOOD_2016_photo_9.jpg SKYWORTH _UHD_4K_DEMO_Santorini FOOD_2016_photo_10.jpg SKYWORTH _UHD_4K_DEMO_Santorini FOOD_2016_photo_11.jpg SKYWORTH _UHD_4K_DEMO_Santorini FOOD_2016_photo_12.jpg SKYWORTH _UHD_4K_DEMO_Santorini FOOD_2016_photo_13.jpg SKYWORTH _UHD_4K_DEMO_Santorini FOOD_2016_photo_14.jpg SKYWORTH _UHD_4K_DEMO_Santorini FOOD_2016_photo_15.jpg SKYWORTH _UHD_4K_DEMO_Santorini FOOD_2016_photo_16.jpg SKYWORTH _UHD_4K_DEMO_Santorini FOOD_2016_photo_17.jpg SKYWORTH _UHD_4K_DEMO_Santorini FOOD_2016_photo_18.jpg SKYWORTH _UHD_4K_DEMO_Santorini FOOD_2016_photo_19.jpg SKYWORTH _UHD_4K_DEMO_Santorini FOOD_2016_photo_20.jpg SKYWORTH _UHD_4K_DEMO_Santorini FOOD_2016_photo_21.jpg
General
Complete name : SKYWORTH _UHD_4K_DEMO_Santorini FOOD_2016.mp4
Format : MPEG-4
Format version : Base Media / Version 2
Codec ID : mp42 (mp42/mp41/isom/avc1)
File size : 796 MiB
Duration : 5 min 48 s
Overall bit rate mode : Variable
Overall bit rate : 19.2 Mbps
Encoded date : UTC 2016-05-16 10:32:08
Tagged date : UTC 2016-05-16 10:32:08

Video
ID : 1
Format : AVC
Format/Info : Advanced Video Codec
Format profile : High@L5.2
Format settings, CABAC : Yes
Format settings, ReFrames : 5 frames
Codec ID : avc1
Codec ID/lnfo : Advanced Video Coding
Duration : 5 min 48 s
Bit rate : 18.9 Mbps
Width : 3840 pixels
Height : 2160 pixels
Display aspect ratio : 16:9
Frame rate mode : Constant
Frame rate : 29.970 (30000/1001) FPS
Color space : YUV
Chroma subsampling : 4:2:0
Bit depth : 8 bits
Scan type : Progressive
Bits/(Pixel*Frame) : 0.076
Stream size : 785 MiB (99%)
Writing library : x264 core 148 r11 a01e339
Encoding settings : cabac=1 / ref=5 / deblock=1:0:0 / analyse=0x3:0x113 / me=umh / subme=8 / psy=1 /  psy_rd=1.00:0.00 / mixed_ref=1 / me_range=16 / chroma_me=1 / trellis=1 / 8x8dct=1 / cqm=0 / deadzone=21,11 / fast_pskip=1 / chroma_qp_offset=-2 / threads=67 /
Encoded date : UTC 2016-05-16 10:32:08
Tagged date : UTC 2016-05-16 10:32:08
Color range : Limited
Color primaries : BT.709
Transfer characteristics : BT.709
Matrix coefficients : BT.709

Audio
ID : 2
Format : AAC
Format/Info : Advanced Audio Codec
Mode extension : LC
Codec ID : 40
Duration : 5 min 48 s
Bit rate mode : Variable
Bit rate : 256 Kbps
Channel(s) : 2 channels
Channel positions : Front: L  R
Sampling rate : 48.0 KHz
Frame rate : 46.875 FPS (1024 spf)
Compression mode : Lossy
Stream size : 10.6 MiB (1%)
Encoded date : UTC 2016-05-16 10:32:08
Tagged date : UTC 2016-05-16 10:32:08
建议在大屏幕电视上观看才能体验最佳效果

MP4百度云盘

上一篇:2016 TCL UHD 4K 演示片 - 波兰项目 [2160P/MP4/478MB]
下一篇:2016 LG OLED TV 4K 演示片 - 4K画质影像展示 [2160P/MP4/576MB]
发表于 2016-9-27 11:13 | 显示全部楼层
强烈支持楼主ing……
回复 支持 反对

使用道具 举报

发表于 2016-9-27 11:24 | 显示全部楼层
太好了 急需啊。。。。。。
回复 支持 反对

使用道具 举报

发表于 2016-9-27 12:09 | 显示全部楼层
感谢分享,ZNDS有你更精彩:)
回复 支持 反对

使用道具 举报

发表于 2016-9-27 12:27 | 显示全部楼层
强烈支持楼主ing……
回复 支持 反对

使用道具 举报

发表于 2016-9-27 12:41 | 显示全部楼层
感谢分享,ZNDS有你更精彩:)
回复 支持 反对

使用道具 举报

发表于 2016-9-27 13:11 | 显示全部楼层
很给力,ZNDS有你更精彩!
回复 支持 反对

使用道具 举报

发表于 2016-9-27 13:37 | 显示全部楼层
sdgdfgdhfg
回复 支持 反对

使用道具 举报

发表于 2016-9-27 14:10 | 显示全部楼层
很给力,ZNDS有你更精彩!
回复 支持 反对

使用道具 举报

发表于 2016-9-27 14:20 | 显示全部楼层
漂亮
回复 支持 反对

使用道具 举报

您需要登录后才可以回帖 登录 | 立即注册

本版积分规则

关闭

推荐应用 上一条 /7 下一条

Archiver|新帖|标签|软件|Sitemap|ZNDS智能电视网 ( 浙ICP备14000780号 )

增值电信业务经营许可证:浙B2-20150411 丨 浙公网安备 33010802006145号

浙网文(2016)6491-366号 | GMT+8, 2019-8-19 02:01 , Processed in 0.141258 second(s), 44 queries .

Powered by Discuz!

监督举报:report#znds.com (请将#替换为@)

© 2007-2019 ZNDS.Com

快速回复 返回顶部 返回列表