首页 收藏 QQ群
 网站导航
开启辅助访问

QQ登录

只需一步,快速开始

扫一扫,访问微社区

立即注册 找回密码
查看: 246230|回复: 1557
[4K视频]

【4K美女视频】Apink - Remember,全是大长腿。腿。腿。

    [复制链接]
发表于 2015-8-26 16:03 | 显示全部楼层 |阅读模式

1.jpg


2.jpg


下载地址:http://yunpan.cn/cmKmxxXLqweAM (提取码:2f74)

视频信息:

General
Complete name                  : C:\Users\lin\Desktop\4K Apink Remember .mp4
Format                         : MPEG-4
Format profile                 : Base Media
Codec ID                       : isom
File size                      : 612 MiB
Duration                       : 4mn 8s
Overall bit rate               : 20.6 Mbps
Writing application            : Lavf55.33.100

Video
ID                             : 1
Format                         : AVC
Format/Info                    : Advanced Video Codec
Format profile                 : High@L5.1
Format settings, CABAC         : No
Format settings, ReFrames      : 2 frames
Codec ID                       : avc1
Codec ID/Info                  : Advanced Video Coding
Duration                       : 4mn 8s
Duration_FirstFrame            : -33ms
Bit rate                       : 20.5 Mbps
Width                          : 3 840 pixels
Height                         : 2 160 pixels
Display aspect ratio           : 16:9
Frame rate mode                : Variable
Frame rate                     : 29.970 fps
Minimum frame rate             : 29.970 fps
Maximum frame rate             : 29.990 fps
Color space                    : YUV
Chroma subsampling             : 4:2:0
Bit depth                      : 8 bits
Scan type                      : Progressive
Bits/(Pixel*Frame)             : 0.082
Stream size                    : 608 MiB (99%)

Audio
ID                             : 2
Format                         : AAC
Format/Info                    : Advanced Audio Codec
Format profile                 : LC
Codec ID                       : 40
Duration                       : 4mn 8s
Bit rate mode                  : Constant
Bit rate                       : 126 Kbps
Channel(s)                     : 2 channels
Channel positions              : Front: L R
Sampling rate                  : 44.1 KHz
Compression mode               : Lossy
Stream size                    : 3.73 MiB (1%)



评分

参与人数 1金币 +1 收起 理由
wx_WoO4D93M + 1

查看全部评分


上一篇:[4K高清]Trails End - 4K Ultra HD极致夜景[2160P/MP4/550M]
下一篇:[4K高清MV]Kaan Duran&Aylince - ALIMALLAH[2160P/MP4/180M]
发表于 2015-8-26 16:05 | 显示全部楼层
很给力,ZNDS有你更精彩!
回复 支持 71 反对 9

使用道具 举报

发表于 2015-8-26 16:31 | 显示全部楼层
感谢分享,ZNDS有你更精彩:)
回复 支持 71 反对 8

使用道具 举报

发表于 2015-8-26 16:12 | 显示全部楼层
回复 支持 7 反对 0

使用道具 举报

 楼主| 发表于 2015-8-26 16:04 | 显示全部楼层
回复 支持 2 反对 0

使用道具 举报

发表于 2015-8-26 16:50 | 显示全部楼层
感谢分享,ZNDS有你更精彩:)
回复 支持 反对

使用道具 举报

匿名  发表于 2015-8-26 18:26
QQQQQQQQQQQQ
回复 支持 反对

使用道具

匿名  发表于 2015-8-26 18:27
CCCCCCCCCCCCCCCC
回复 支持 反对

使用道具

匿名  发表于 2015-8-26 18:28
很给力,ZNDS有你更精彩!
回复 支持 反对

使用道具

发表于 2015-8-26 18:30 | 显示全部楼层
精华内容,楼主V5!
回复 支持 反对

使用道具 举报

您需要登录后才可以回帖 登录 | 立即注册

本版积分规则

关闭

推荐应用 上一条 /6 下一条

Archiver|新帖|标签|软件|Sitemap|ZNDS智能电视网 ( 浙ICP备14000780号 )

增值电信业务经营许可证:浙B2-20150411 丨 浙公网安备 33010802006145号

浙网文(2016)6491-366号 | GMT+8, 2018-12-15 04:04 , Processed in 0.085584 second(s), 22 queries , MemCache On.

Powered by Discuz!

监督举报:report#znds.com (请将#替换为@)

© 2007-2018 ZNDS.Com

快速回复 返回顶部 返回列表