ZNDS智能电视网 推荐当贝市场

TV应用下载 / 资源分享区

软件下载 | 游戏 | 讨论 | 电视计算器

综合交流 / 评测 / 活动区

交流区 | 测硬件 | 网站活动 | Z币中心

新手入门 / 进阶 / 社区互助

新手 | 你问我答 | 免费刷机救砖 | ROM固件

查看: 13107|回复: 7
[反馈]

反馈一下当贝盒子H3的一个问题,官方能不能解决一下

[复制链接]
发表于 2024-2-14 20:23 | 显示全部楼层 |阅读模式 | 来自辽宁
本帖最后由 智能小柠檬 于 2024-2-14 22:51 编辑

我刚买的H3 固件是最新版
安装了emby
使用emby内置播放器 某些HEVC的视频无法播放
不是所有的HEVC,是一部分,我分辨不出是什么问题
点开之后 进度条正常 声音正常 但是画面停止在一帧不动
后面我附一个视频的info
是什么原因?
emby设置为第三方播放器是可以播放的
(使用KMPLAYER可以播放但是不稳定,而且KM用遥控器无法调出状态栏,无法播放暂停,可能是因为下载使用的是手机版;用当贝播放器可以但是当贝播放器不能解析AC3音频,提示版权问题,很头疼)
最后我试了一下,用CX文件管理器的自带播放器是可以播的……)
在本地播放我试了一下,当贝播放器播放卡顿,用cx自带的播放器可以播放。

[视频信息]
  视频编码: HVC1 - Native D3D9 DXVA Decoder(VLD) - Intel(R) Iris(R) Xe Graphics
  输入格式: HVC1(24 bits)
  输入尺寸: 3840 × 2160(1.78:1)
  输出格式: dxva
  输出尺寸: 3840 × 2160(1.78:1)
  帧率: 25
  BitRate: 未知

[音频信息]
  音频编码: AAC(0xaac0) - 内置 FFmpeg 解码器(aac)
  采样率: 44100 -> 44100 Hz
  位率: 16 -> 16 位
  声道数: 2 -> 2 声道
  Bitrate: 189 kbps


General
Complete name                  : C:\Users\test\Downloads\小猪佩奇第七季.Peppa.Pig.Season.7.E04.4K.WEB-DL.H265.AAC-OurTV.mp4
Format                         : MPEG-4
Format profile                 : Base Media
Codec ID                       : isom (isom/iso2/mp41)
File size                      : 64.4 MiB
Duration                       : 5 min 11 s
Overall bit rate               : 1 737 kb/s
Frame rate                     : 25.000 FPS
Writing application            : Lavf58.10.100

Video
ID                             : 1
Format                         : HEVC
Format/Info                    : High Efficiency Video Coding
Format profile                 : Main@L5@Main
Codec ID                       : hev1
Codec ID/Info                  : High Efficiency Video Coding
Duration                       : 5 min 11 s
Bit rate                       : 1 541 kb/s
Width                          : 3 840 pixels
Height                         : 2 160 pixels
Display aspect ratio           : 16:9
Frame rate mode                : Constant
Frame rate                     : 25.000 FPS
Color space                    : YUV
Chroma subsampling             : 4:2:0
Bit depth                      : 8 bits
Bits/(Pixel*Frame)             : 0.007
Stream size                    : 57.1 MiB (89%)
Color range                    : Limited
Color primaries                : BT.709
Transfer characteristics       : BT.709
Matrix coefficients            : BT.709
Codec configuration box        : hvcC

Audio
ID                             : 2
Format                         : AAC LC
Format/Info                    : Advanced Audio Codec Low Complexity
Codec ID                       : mp4a-40-2
Duration                       : 5 min 11 s
Bit rate mode                  : Constant
Bit rate                       : 192 kb/s
Channel(s)                     : 2 channels
Channel layout                 : L R
Sampling rate                  : 44.1 kHz
Frame rate                     : 43.066 FPS (1024 SPF)
Compression mode               : Lossy
Stream size                    : 7.03 MiB (11%)
Default                        : Yes
Alternate group                : 1




上一篇:H3S无法使用谷歌框架和海外APP
下一篇:2024电视盒子如何选购 2024电视盒子选购指南
发表于 2024-2-14 22:51 | 显示全部楼层 | 来自浙江
楼主这个问题我反馈给当贝产品人员的,有消息会第一时间告诉您
回复 支持 反对

使用道具 举报

发表于 2024-2-14 22:52 | 显示全部楼层 | 来自广东
是指当贝播放器播放卡顿的问题吗?
回复 支持 反对

使用道具 举报

发表于 2024-2-14 22:52 | 显示全部楼层 | 来自广东
具体什么样子哇,有截图吗
回复 支持 反对

使用道具 举报

 楼主| 发表于 2024-2-15 12:05 | 显示全部楼层 | 来自辽宁
智能小柠檬 发表于 2024-2-14 22:51
楼主这个问题我反馈给当贝产品人员的,有消息会第一时间告诉您

好的 谢谢~ 如果需要可以联系我 我录个视频 或者提供其他信息
回复 支持 反对

使用道具 举报

发表于 2024-2-18 09:29 | 显示全部楼层 | 来自广东
pgydgs 发表于 2024-2-15 12:05
好的 谢谢~ 如果需要可以联系我 我录个视频 或者提供其他信息

好的哦
回复 支持 反对

使用道具 举报

发表于 2024-3-7 05:57 | 显示全部楼层 | 来自山东
我也有同样的问题,emby电视版,手机版在播放4K hdr10时卡顿,音画不同步,用最新版当贝播放器可以播放,但是不能记录播放进度。
回复 支持 反对

使用道具 举报

发表于 2024-3-9 01:42 | 显示全部楼层 | 来自山东
智能小柠檬 发表于 2024-2-14 22:51
楼主这个问题我反馈给当贝产品人员的,有消息会第一时间告诉您

有消息吗?
回复 支持 反对

使用道具 举报

您需要登录后才可以回帖 登录 | 立即注册

本版积分规则

Archiver|新帖|标签|软件|Sitemap|ZNDS智能电视网 ( 苏ICP备2023012627号 )

网络信息服务信用承诺书 | 增值电信业务经营许可证:苏B2-20221768 丨 苏公网安备 32011402011373号

GMT+8, 2024-6-20 22:32 , Processed in 0.070257 second(s), 14 queries , Redis On.

Powered by Discuz!

监督举报:report#znds.com (请将#替换为@)

© 2007-2024 ZNDS.Com

快速回复 返回顶部 返回列表