首页 收藏 QQ群
 网站导航
开启辅助访问

QQ登录

只需一步,快速开始

扫一扫,访问微社区

立即注册 找回密码
查看: 297209|回复: 1406
[4K视频]

索尼 4K 演示片 - 香港延时摄影 (高码率) [2160P/MKV/473MB]

  [复制链接]
发表于 2017-8-29 18:16 | 显示全部楼层 |阅读模式
索尼 4K 演示片 - 香港延时摄影 (高码率) [2160P/MKV/473MB]
SONY.4K.DEMO_Hong.Kong.Timelapse.mkv_2017_01.jpg SONY.4K.DEMO_Hong.Kong.Timelapse.mkv_2017_02.jpg SONY.4K.DEMO_Hong.Kong.Timelapse.mkv_2017_03.jpg SONY.4K.DEMO_Hong.Kong.Timelapse.mkv_2017_04.jpg SONY.4K.DEMO_Hong.Kong.Timelapse.mkv_2017_05.jpg SONY.4K.DEMO_Hong.Kong.Timelapse.mkv_2017_06.jpg SONY.4K.DEMO_Hong.Kong.Timelapse.mkv_2017_07.jpg SONY.4K.DEMO_Hong.Kong.Timelapse.mkv_2017_08.jpg SONY.4K.DEMO_Hong.Kong.Timelapse.mkv_2017_09.jpg

General
Unique ID : 203258647464697606859330353346025646442 (0x98EA310A20C478D7BA529C017484696A)
Complete name : SONY.4K.DEMO_Hong.Kong.Timelapse.mkv
Format : Matroska
Format version : Version 4 / Version 2
File size : 473 MiB
Duration : 1 min 35 s
Overall bit rate : 41.7 Mbps
Encoded date : UTC 2016-04-11 16:08:17
Writing application : mkvmerge v9.0.1 ('Obstacles') 64bit
Writing library : libebml v1.3.3 + libmatroska v1.4.4

Video
ID : 1
Format : AVC
Format/Info : Advanced Video Codec
Format profile : High@L5.1
Format settings, CABAC : Yes
Format settings, RefFrames : 4 frames
Codec ID : V_MPEG4/ISO/AVC
Duration : 1 min 35 s
Bit rate : 40.6 Mbps
Width : 3840 pixels
Height : 2160 pixels
Display aspect ratio : 16:9
Frame rate mode : Constant
Frame rate : 29.970 (30000/1001) FPS
Color space : YUV
Chroma subsampling : 4:2:0
Bit depth : 8 bits
Scan type : Progressive
Bits/(Pixel*Frame) : 0.164
Stream size : 461 MiB (97%)
Writing library : x264 core 142 r2479 dd79a61
Encoding settings : cabac=1 / ref=4 / deblock=1:-1:-1 / analyse=0x3:0x113 / me=umh / subme=10 / psy=1 / psy_rd=1.00:0.15 / mixed_ref=1 / me_range=24 / chroma_me=1 / trellis=2 / 8x8dct=1 / cqm=0 / deadzone=21,11 / fast_pskip=1 / chroma_qp_offset=-3 / threads=12 / lookahead_threads=1 / sliced_threads=0 / nr=0 / decimate=1 / interlaced=0 / bluray_compat=0 / constrained_intra=0 / bframes=3 / b_pyramid=2 / b_adapt=2 / b_bias=0 / direct=1 / weightb=1 / open_gop=0 / weightp=2 / keyint=300 / keyint_min=30 / scenecut=40 / intra_refresh=0 / rc_lookahead=60 / rc=crf / mbtree=1 / crf=15.0 / qcomp=0.60 / qpmin=0 / qpmax=69 / qpstep=4 / vbv_maxrate=50000 / vbv_bufsize=60000 / crf_max=0.0 / nal_hrd=none / filler=0 / ip_ratio=1.40 / aq=1:1.00
Language : English
Default : Yes
Forced : No
Color range : Limited
Color primaries : BT.709
Transfer characteristics : BT.709
Matrix coefficients : BT.709

Audio
ID : 2
Format : AC-3
Format/Info : Audio Coding 3
Format settings, Endianness : Big
Codec ID : A_AC3
Duration : 1 min 35 s
Bit rate mode : Constant
Bit rate : 224 kbps
Channel(s) : 2 channels
Channel positions : Front: L R
Sampling rate : 48.0 kHz
Frame rate : 31.250 FPS (1536 SPF)
Bit depth : 16 bits
Compression mode : Lossy
Delay relative to video : -5 ms
Stream size : 2.54 MiB (1%)
Language : English
Service kind : Complete Main
Default : Yes
Forced : No
播放器 : Potplaye/MPC-HC
建议在大屏幕电视上观看才能体验最佳效果

MKV百度云盘

评分

参与人数 1金币 +10 Z币 +3 收起 理由
卡卡 + 10 + 3 精品文章^_^

查看全部评分


上一篇:索尼 4K 演示片 - 美丽的冲绳海 (高码率) [2160P/MKV/686MB]
下一篇:4K电视开播!台湾4K公视UHD短片《德国淮杨乡村》60fps/H265/2160p
发表于 2017-8-29 18:23 | 显示全部楼层
谢谢楼主的无私奉献!!!!!!
回复 支持 反对

使用道具 举报

发表于 2017-8-29 19:51 | 显示全部楼层
谢谢楼主的无私奉献!!
回复 支持 反对

使用道具 举报

发表于 2017-8-29 22:57 | 显示全部楼层
高手在当贝啊!学习了
回复 支持 反对

使用道具 举报

发表于 2017-8-29 23:00 | 显示全部楼层
ZNDS的教程简直男默女泪啊!
回复 支持 反对

使用道具 举报

发表于 2017-8-30 00:58 | 显示全部楼层
感谢楼主无私分享
回复 支持 反对

使用道具 举报

发表于 2017-8-30 09:55 | 显示全部楼层
楼主辛苦了
回复 支持 反对

使用道具 举报

发表于 2017-8-30 10:10 | 显示全部楼层
谢谢楼主辛苦分享。。。
回复 支持 反对

使用道具 举报

发表于 2017-8-30 10:37 | 显示全部楼层
楼主用心了,内容非常精彩。
回复 支持 反对

使用道具 举报

发表于 2017-8-30 19:34 | 显示全部楼层
吱吱吱吱吱吱吱吱吱吱吱吱吱吱吱吱吱
回复 支持 反对

使用道具 举报

您需要登录后才可以回帖 登录 | 立即注册

本版积分规则

关闭

推荐应用 上一条 /7 下一条

Archiver|新帖|标签|软件|Sitemap|ZNDS智能电视网 ( 浙ICP备14000780号 )

增值电信业务经营许可证:浙B2-20150411 丨 浙公网安备 33010802006145号

浙网文(2016)6491-366号 | GMT+8, 2019-7-19 05:18 , Processed in 0.101173 second(s), 22 queries , MemCache On.

Powered by Discuz!

监督举报:report#znds.com (请将#替换为@)

© 2007-2019 ZNDS.Com

快速回复 返回顶部 返回列表