首页 收藏 QQ群
 网站导航
开启辅助访问

QQ登录

只需一步,快速开始

扫一扫,访问微社区

立即注册 找回密码
查看: 222308|回复: 779
[4K视频]

[4K足球赛]2017年欧洲超级杯(皇家马德里 VS 曼联)(2017-08-08)[21...

  [复制链接]
发表于 2017-8-11 15:36 | 显示全部楼层 |阅读模式
本帖最后由 klpoij89 于 2017-8-14 01:56 编辑

[4K足球赛]2017年欧洲超级杯(皇家马德里 VS 曼联)(2017-08-08)[2160P/MKV/22.2GB]
(2小时4分钟全场比赛+颁奖仪式)
UEFA SUPER CUP 2017.jpg General
Unique ID : 195712052438260441729891066607473234844 (0x933CC52D95F28BB3A2958DF1630B939C)
Complete name : RMA-MU.2160p.08.08.2017-Nikolay_-_-.mkv
Format : Matroska
Format version : Version 4 / Version 2
File size : 22.2 GiB
Duration : 2 h 4 min
Overall bit rate : 25.5 Mbps
Encoded date : UTC 2017-08-08 21:02:00
Writing application : mkvmerge v8.3.0 ('Over the Horizon') 64bit
Writing library : libebml v1.3.1 + libmatroska v1.4.2

Video
ID : 1
Format : HEVC
Format/Info : High Efficiency Video Coding
Format profile : Main 10@L5.1@Main
Codec ID : V_MPEGH/ISO/HEVC
Duration : 2 h 4 min
Bit rate : 25.2 Mbps
Width : 3840 pixels
Height : 2160 pixels
Display aspect ratio : 16:9
Frame rate mode : Constant
Frame rate : 50.000 FPS
Color space : YUV
Chroma subsampling : 4:2:0
Bit depth : 10 bits
Bits/(Pixel*Frame) : 0.061
Stream size : 21.9 GiB (99%)
Default : Yes
Forced : No

Audio
ID : 2
Format : E-AC-3
Format/Info : Enhanced Audio Coding 3
Format settings, Endianness : Big
Codec ID : A_EAC3
Duration : 2 h 4 min
Bit rate mode : Constant
Bit rate : 256 kbps
Channel(s) : 6 channels
Channel positions : Front: L C R, Side: L R, LFE
Sampling rate : 48.0 kHz
Frame rate : 187.500 FPS (256 SPF)
Compression mode : Lossy
Delay relative to video : -520 ms
Stream size : 228 MiB (1%)
Service kind : Complete Main
Default : Yes
Forced : No
RMA-MU.2160p.08.08.2017-Nikolay_-_-.mkv_2017_01.png RMA-MU.2160p.08.08.2017-Nikolay_-_-.mkv_2017_02.png RMA-MU.2160p.08.08.2017-Nikolay_-_-.mkv_2017_03.png RMA-MU.2160p.08.08.2017-Nikolay_-_-.mkv_2017_04.png RMA-MU.2160p.08.08.2017-Nikolay_-_-.mkv_2017_05.png RMA-MU.2160p.08.08.2017-Nikolay_-_-.mkv_2017_06.png RMA-MU.2160p.08.08.2017-Nikolay_-_-.mkv_2017_07.png RMA-MU.2160p.08.08.2017-Nikolay_-_-.mkv_2017_08.png RMA-MU.2160p.08.08.2017-Nikolay_-_-.mkv_2017_09.png RMA-MU.2160p.08.08.2017-Nikolay_-_-.mkv_2017_10.png RMA-MU.2160p.08.08.2017-Nikolay_-_-.mkv_2017_11.png RMA-MU.2160p.08.08.2017-Nikolay_-_-.mkv_2017_12.png RMA-MU.2160p.08.08.2017-Nikolay_-_-.mkv_2017_13.png RMA-MU.2160p.08.08.2017-Nikolay_-_-.mkv_2017_14.png RMA-MU.2160p.08.08.2017-Nikolay_-_-.mkv_2017_15.png RMA-MU.2160p.08.08.2017-Nikolay_-_-.mkv_2017_16.png RMA-MU.2160p.08.08.2017-Nikolay_-_-.mkv_2017_17.png RMA-MU.2160p.08.08.2017-Nikolay_-_-.mkv_2017_18.png RMA-MU.2160p.08.08.2017-Nikolay_-_-.mkv_2017_19.png RMA-MU.2160p.08.08.2017-Nikolay_-_-.mkv_2017_20.png RMA-MU.2160p.08.08.2017-Nikolay_-_-.mkv_2017_21.png RMA-MU.2160p.08.08.2017-Nikolay_-_-.mkv_2017_22.png RMA-MU.2160p.08.08.2017-Nikolay_-_-.mkv_2017_23.png RMA-MU.2160p.08.08.2017-Nikolay_-_-.mkv_2017_24.png RMA-MU.2160p.08.08.2017-Nikolay_-_-.mkv_2017_25.png RMA-MU.2160p.08.08.2017-Nikolay_-_-.mkv_2017_26.png RMA-MU.2160p.08.08.2017-Nikolay_-_-.mkv_2017_27.png RMA-MU.2160p.08.08.2017-Nikolay_-_-.mkv_2017_28.png RMA-MU.2160p.08.08.2017-Nikolay_-_-.mkv_2017_29.png 建议使用极速迅雷来高速下载!
播放器: Potplaye/MPC-HC/影音先锋

BT种子文件下载

上一篇:老伊斯坦布尔和博斯普鲁斯海峡[2160P/MP4/1.21GB]
下一篇:8K资源的话电脑看能显示出区别吗?一般多大
发表于 2017-8-11 15:37 | 显示全部楼层
这个好
回复 支持 反对

使用道具 举报

发表于 2017-8-11 18:49 | 显示全部楼层
高手在当贝啊!学习了
回复 支持 反对

使用道具 举报

发表于 2017-8-11 20:30 | 显示全部楼层
好!!!!!!
回复 支持 反对

使用道具 举报

发表于 2017-8-12 00:11 | 显示全部楼层
先把机器刷成砖,再把砖头刷成机器,我都佩服自己在ZNDS学到的刷机技术!
回复 支持 反对

使用道具 举报

发表于 2017-8-12 08:54 | 显示全部楼层
感谢分享
回复 支持 反对

使用道具 举报

发表于 2017-8-12 09:06 | 显示全部楼层
BT种子文件下载
回复 支持 反对

使用道具 举报

发表于 2017-8-12 11:23 | 显示全部楼层
不得了
回复 支持 反对

使用道具 举报

发表于 2017-8-12 11:42 | 显示全部楼层
dfvsdfvsdvsvsdvsdvdsrv
回复 支持 反对

使用道具 举报

发表于 2017-8-12 13:27 | 显示全部楼层
4K
我来了
回复 支持 反对

使用道具 举报

您需要登录后才可以回帖 登录 | 立即注册

本版积分规则

关闭

推荐应用 上一条 /7 下一条

Archiver|新帖|标签|软件|Sitemap|ZNDS智能电视网 ( 浙ICP备14000780号 )

增值电信业务经营许可证:浙B2-20150411 丨 浙公网安备 33010802006145号

浙网文(2016)6491-366号 | GMT+8, 2019-10-21 10:59 , Processed in 0.070739 second(s), 19 queries , MemCache On.

Powered by Discuz!

监督举报:report#znds.com (请将#替换为@)

© 2007-2019 ZNDS.Com

快速回复 返回顶部 返回列表