首页 收藏 QQ群
 网站导航
开启辅助访问

QQ登录

只需一步,快速开始

扫一扫,访问微社区

立即注册 找回密码
查看: 143660|回复: 1061
[4K电影]

4K版《长城》饕餮大战7分钟精彩片段

  [复制链接]
发表于 2017-7-25 13:28 | 显示全部楼层 |阅读模式
7b23dbc81f2b4914.png e624843359ab7818.png 0dc7e27394a7cbc0.png

Complete name         : The Great Wall.2016 2160P.x265.10bit.mkv
File size                      : 1.87 GiB
Duration                    : 7mn 29s
Overall bit rate mode  : Variable
Overall bit rate          : 35.8 Mbps
Format                      : HEVC
Duration                    : 7mn 28s
Bit rate                       : 29.5 Mbps
Width                         : 3 840 pixels
Height                        : 2 160 pixels
Display aspect ratio   : 16:9
Frame rate                 : 23.976 (24000/1001) fps
Color space                : YUV
Chroma subsampling  : 4:2:0
Bit depth                      : 10 bits
Bits/(Pixel*Frame)        : 0.148
Stream size                  : 1.54 GiB (82%)

Audio
Duration                       : 7mn 28s
Bit rate mode               : Variable
Bit rate                          : 6 371 Kbps
Maximum bit rate         : 7 719 Kbps
Sampling rate                :  / 48.0 KHz
Frame rate                     : 1 200.000 fps (40 spf)
Compression mode       : Lossless
Stream size                    : 341 MiB (18%)


游客,如果您要查看本帖隐藏内容请回复



发表于 2017-7-25 13:31 | 显示全部楼层
很给力,ZNDS有你更精彩!
回复 支持 反对

使用道具 举报

发表于 2017-7-25 13:43 | 显示全部楼层
强烈支持楼主ing……
回复 支持 反对

使用道具 举报

发表于 2017-7-25 14:42 | 显示全部楼层
强烈支持楼主ing……
回复 支持 反对

使用道具 举报

发表于 2017-7-25 16:32 | 显示全部楼层
感谢分享,ZNDS有你更精彩:)
回复 支持 反对

使用道具 举报

发表于 2017-7-25 17:15 | 显示全部楼层
强烈支持楼主ing……
回复 支持 反对

使用道具 举报

发表于 2017-7-25 21:03 | 显示全部楼层
淡定,淡定,淡定……
回复 支持 反对

使用道具 举报

发表于 2017-7-25 23:31 | 显示全部楼层
很给力,ZNDS有你更精彩!
回复 支持 反对

使用道具 举报

匿名  发表于 2017-7-26 00:27
我只是路过打酱油的。
回复 支持 反对

使用道具

发表于 2017-7-26 00:28 | 显示全部楼层
楼主用心了,内容非常精彩。
回复 支持 反对

使用道具 举报

您需要登录后才可以回帖 登录 | 立即注册

本版积分规则

关闭

推荐应用 上一条 /6 下一条

Archiver|新帖|标签|软件|Sitemap|ZNDS智能电视网 ( 浙ICP备14000780号 )

增值电信业务经营许可证:浙B2-20150411 丨 浙公网安备 33010802006145号

浙网文(2016)6491-366号 | GMT+8, 2018-8-14 16:34 , Processed in 0.058876 second(s), 17 queries , MemCache On.

Powered by Discuz!

监督举报:report#znds.com (请将#替换为@)

© 2007-2018 ZNDS.Com

快速回复 返回顶部 返回列表