首页 收藏 QQ群
 网站导航
开启辅助访问

QQ登录

只需一步,快速开始

扫一扫,访问微社区

立即注册 找回密码
查看: 769732|回复: 4381
[4K视频]

【4K演示片-三星】迪拜夜景-无与伦比的华丽璀璨【3840×2160p】

    [复制链接]
发表于 2014-9-9 09:42 | 显示全部楼层 |阅读模式
本帖最后由 5to5 于 2014-9-9 10:26 编辑

1.jpg 2.jpg 3.jpg 4.jpg 5.jpg 6.jpg 7.jpg

一座超级土豪的城市,金碧辉煌的城市夜景。samsung三星4K演示片视频。

视频参数信息:
  • General
  • ID                             : 0 (0x0)
  • Complete name           : T:\4K中国\samsung三星4K演示片uhdtv迪拜Dubai.ts
  • Format                       : MPEG-TS
  • File size                      : 656 MiB
  • Duration                     : 1mn 47s
  • Overall bit rate mode   : Constant
  • Overall bit rate            : 51.4 Mbps
  • Video
  • ID                              : 257 (0x101)
  • Menu ID                      : 1 (0x1)
  • Format                        : HEVC
  • Format/Info                 : High Efficiency Video Coding
  • Codec ID                     : 36
  • Duration                      : 1mn 46s
  • Bit rate                        : 48.7 Mbps
  • Stream size                  : 616 MiB (94%)
  • Audio
  • ID                               : 258 (0x102)
  • Menu ID                      : 1 (0x1)
  • Format                        : AAC
  • Format/Info                 : Advanced Audio Codec
  • Format version             : Version 4
  • Format profile              : LC
  • Muxing mode               : ADTS
  • Codec ID                     : 15
  • Duration                      : 1mn 46s
  • Bit rate mode               : Variable
  • Bit rate                        : 137 Kbps
  • Channel(s)                   : 2 channels
  • Channel positions         : Front: L R
  • Sampling rate               : 48.0 KHz
  • Compression mode       : Lossy
  • Stream size                  : 1.73 MiB (0%)

[color=rgb(51, 102, 153) !important]复制代码


其它关键信息:

+类型:三星4K UHDTV视频演示片
+视频格式:TS
+文件大小:655mb
+视频编码:HEVC/H.265
+PS: H265需要软、硬件支持才能播放。


每一个镜头、画面,都值得仔细观赏,会带给你震撼的视觉体验!
推荐在50寸以上屏幕观看。否则是体验不了这部片的真实感受。


百度盘:




上一篇:【4K演示片】三星-2014米兰FTV(时装秀).H265超清视频[1G]
下一篇:【4K演示片-创维】超高清显示多彩的世界,绚烂缤纷[654M]
发表于 2014-9-9 10:22 | 显示全部楼层
谢谢交流!!!!!!!!!!!!!!!!
回复 支持 55 反对 6

使用道具 举报

发表于 2014-9-9 09:46 | 显示全部楼层
我只是路过打酱油的。
回复 支持 12 反对 2

使用道具 举报

发表于 2014-9-9 15:48 | 显示全部楼层
怎么下载????????????????

点评

回复可见百度盘地址 然后登陆百度盘就可以转存或下载了  详情 回复 发表于 2014-9-10 11:32
回复 支持 3 反对 0

使用道具 举报

发表于 2014-9-9 15:18 | 显示全部楼层
强烈支持楼主ing……
回复 支持 3 反对 0

使用道具 举报

发表于 2014-9-10 00:21 | 显示全部楼层
感谢分享,ZNDS有你更精彩:)
回复 支持 反对

使用道具 举报

发表于 2014-9-10 01:02 | 显示全部楼层
111111111111111111111
回复 支持 反对

使用道具 举报

发表于 2014-9-10 07:51 来自ZNDS手机版 | 显示全部楼层
看看
回复 支持 反对

使用道具 举报

发表于 2014-9-10 08:12 | 显示全部楼层
儿童
回复 支持 反对

使用道具 举报

发表于 2014-9-10 08:20 | 显示全部楼层
强烈支持楼主ing……
回复 支持 反对

使用道具 举报

您需要登录后才可以回帖 登录 | 立即注册

本版积分规则

关闭

推荐应用 上一条 /7 下一条

Archiver|新帖|标签|软件|Sitemap|ZNDS智能电视网 ( 浙ICP备14000780号 )

增值电信业务经营许可证:浙B2-20150411 丨 浙公网安备 33010802006145号

浙网文(2016)6491-366号 | GMT+8, 2019-9-15 22:15 , Processed in 0.093464 second(s), 25 queries , MemCache On.

Powered by Discuz!

监督举报:report#znds.com (请将#替换为@)

© 2007-2019 ZNDS.Com

快速回复 返回顶部 返回列表