首页 收藏 QQ群
 网站导航
开启辅助访问

QQ登录

只需一步,快速开始

扫一扫,访问微社区

立即注册 找回密码
查看: 305167|回复: 1113
[4K视频]

【4K演示片】三星-2014米兰FTV(时装秀).H265超清视频[1G]

    [复制链接]
发表于 2014-9-3 16:33 | 显示全部楼层 |阅读模式
1(1).jpg 1 (4).jpg 1 (3).jpg 1 (2).jpg

2014年最新:Samsung三星4K超清演示片. 2014米兰FTV时装秀,UHDTV.H265视频编码

General
ID                             : 0 (0x0)
Complete name                  : D:\4K123\2014米兰FTV时装秀.ts
Format                         : MPEG-TS
File size                      : 950 MiB
Duration                       : 2mn 35s
Overall bit rate mode          : Constant
Overall bit rate               : 51.4 Mbps

Video
ID                             : 257 (0x101)
Menu ID                        : 1 (0x1)
Format                         : HEVC
Format/Info                    : High Efficiency Video Coding
Codec ID                       : 36
Duration                       : 2mn 34s
Bit rate                       : 48.7 Mbps
Stream size                    : 896 MiB (94%)

Audio
ID                             : 258 (0x102)
Menu ID                        : 1 (0x1)
Format                         : AAC
Format/Info                    : Advanced Audio Codec
Format version                 : Version 4
Format profile                 : LC
Muxing mode                    : ADTS
Codec ID                       : 15
Duration                       : 2mn 34s
Bit rate mode                  : Variable
Bit rate                       : 129 Kbps
Channel(s)                     : 2 channels
Channel positions              : Front: L R
Sampling rate                  : 48.0 KHz
Compression mode               : Lossy
Stream size                    : 2.37 MiB (0%)


PS:这部4K演示片为H.265编码格式,需要一定的软硬件解码支持才能播放。




         国际男女模特,时尚、潮流、养眼的4K演示片。


百度盘:










上一篇:【4K】LG-4K制作2K演示片,4部合集
下一篇:【4K演示片-三星】迪拜夜景-无与伦比的华丽璀璨【3840×2160p】
发表于 2014-9-3 16:44 | 显示全部楼层
强烈支持楼主ing……
回复 支持 28 反对 3

使用道具 举报

发表于 2014-9-3 19:52 | 显示全部楼层
强烈支持楼主ing……
回复 支持 22 反对 6

使用道具 举报

发表于 2014-9-4 21:57 | 显示全部楼层
楼主用心了,内容非常精彩。
回复 支持 1 反对 0

使用道具 举报

发表于 2014-9-4 16:48 | 显示全部楼层
强烈支持楼主ing……
回复 支持 0 反对 1

使用道具 举报

发表于 2014-9-4 07:26 | 显示全部楼层
感谢分享
回复 支持 1 反对 0

使用道具 举报

发表于 2014-9-3 21:23 | 显示全部楼层
很给力,ZNDS有你更精彩!
回复 支持 1 反对 0

使用道具 举报

发表于 2014-9-3 20:33 | 显示全部楼层
very good
回复 支持 1 反对 0

使用道具 举报

发表于 2014-9-3 16:36 | 显示全部楼层
强烈支持楼主ing……

点评

感谢分享  详情 回复 发表于 2015-4-3 11:37
回复 支持 0 反对 1

使用道具 举报

发表于 2014-9-5 09:34 | 显示全部楼层
6666666666666666
回复 支持 反对

使用道具 举报

您需要登录后才可以回帖 登录 | 立即注册

本版积分规则

关闭

推荐应用 上一条 /7 下一条

Archiver|新帖|标签|软件|Sitemap|ZNDS智能电视网 ( 浙ICP备14000780号 )

增值电信业务经营许可证:浙B2-20150411 丨 浙公网安备 33010802006145号

浙网文(2016)6491-366号 | GMT+8, 2019-9-15 22:30 , Processed in 0.105041 second(s), 25 queries , MemCache On.

Powered by Discuz!

监督举报:report#znds.com (请将#替换为@)

© 2007-2019 ZNDS.Com

快速回复 返回顶部 返回列表