首页 收藏 QQ群
 网站导航
开启辅助访问

QQ登录

只需一步,快速开始

扫一扫,访问微社区

立即注册 找回密码
查看: 941954|回复: 4648
[4K电影]

三星4K演示片:变形金刚4+3+2+1预告片H265/1.3G

    [复制链接]
发表于 2014-6-11 18:38 | 显示全部楼层 |阅读模式
本帖最后由 klpoij89 于 2016-2-27 21:39 编辑

1.jpg
2.jpg
3.jpg General
ID                             : 0 (0x0)
Complete name                  : E:\4K中国\UHD_ENT_Transformer_Quad.ts
Format                         : MPEG-TS
File size                      : 1.38 GiB
Duration                       : 3mn 51s
Overall bit rate mode          : Constant
Overall bit rate               : 51.4 Mbps

Video
ID                             : 257 (0x101)
Menu ID                        : 1 (0x1)
Format                         : HEVC
Format/Info                    : High Efficiency Video Coding
Codec ID                       : 36
Duration                       : 3mn 50s
Bit rate                       : 48.7 Mbps
Stream size                    : 1.31 GiB (94%)

Audio
ID                             : 258 (0x102)
Menu ID                        : 1 (0x1)
Format                         : AAC
Format/Info                    : Advanced Audio Codec
Format version                 : Version 4
Format profile                 : LC
Muxing mode                    : ADTS
Codec ID                       : 15
Duration                       : 3mn 50s
Bit rate mode                  : Constant
Bit rate                       : 126 Kbps
Channel(s)                     : 2 channels
Channel positions              : Front: L R
Sampling rate                  : 48.0 KHz
Compression mode               : Lossy
Stream size                    : 3.45 MiB (0%)

UHD 4+3+2+1演示专用.ts百度云盘


评分

参与人数 1金币 +10 收起 理由
卡卡 + 10 感谢分享^_^

查看全部评分


上一篇:[LG.4K.演示片] 广告.超清电视[2160P/MP4/402M]
下一篇:[三星专用.4K.演示片] H.265编码.捷克[2160P/TS/1.22G]
发表于 2014-7-31 14:55 | 显示全部楼层
ding
回复 支持 36 反对 8

使用道具 举报

发表于 2014-7-31 15:11 | 显示全部楼层
怎么播放不出来?
回复 支持 18 反对 1

使用道具 举报

发表于 2014-7-31 15:10 | 显示全部楼层
谢谢谢谢谢谢谢谢谢谢谢谢谢谢谢谢谢谢谢谢谢谢谢谢谢谢谢谢谢谢
回复 支持 2 反对 0

使用道具 举报

发表于 2014-6-11 23:15 | 显示全部楼层
收下了 谢谢
回复 支持 15 反对 5

使用道具 举报

发表于 2014-6-11 23:18 | 显示全部楼层
正需要啊,感谢楼主无私分享!
回复 支持 1 反对 0

使用道具 举报

匿名  发表于 2014-6-11 23:20
很不错,看起来很好,真部额准备下载啊
回复 支持 1 反对 0

使用道具

匿名  发表于 2014-6-11 23:21
很不错很不错很不错,再来看看,下载啊
回复 支持 1 反对 0

使用道具

发表于 2014-6-12 01:26 | 显示全部楼层
再来看看,下载
回复 支持 15 反对 0

使用道具 举报

发表于 2014-6-12 01:39 | 显示全部楼层
强烈支持楼主ing……
回复 支持 反对

使用道具 举报

发表于 2014-6-12 02:33 | 显示全部楼层
小手一抖,金币拿走。
回复 支持 反对

使用道具 举报

发表于 2014-6-12 05:06 | 显示全部楼层
gvfbnnfdf

来自:Android客户端
广东省广州市花都区联新路5号
回复 支持 反对

使用道具 举报

发表于 2014-6-12 08:42 | 显示全部楼层
强烈支持楼主ing……
回复 支持 反对

使用道具 举报

您需要登录后才可以回帖 登录 | 立即注册

本版积分规则

关闭

推荐应用 上一条 /7 下一条

Archiver|新帖|标签|软件|Sitemap|ZNDS智能电视网 ( 浙ICP备14000780号 )

增值电信业务经营许可证:浙B2-20150411 丨 浙公网安备 33010802006145号

浙网文(2016)6491-366号 | GMT+8, 2019-8-19 00:59 , Processed in 0.172965 second(s), 46 queries .

Powered by Discuz!

监督举报:report#znds.com (请将#替换为@)

© 2007-2019 ZNDS.Com

快速回复 返回顶部 返回列表