首页 收藏 QQ群
 网站导航
开启辅助访问

QQ登录

只需一步,快速开始

扫一扫,访问微社区

立即注册 找回密码
查看: 38392|回复: 669
[4K视频]

索尼 BRAVIA OLED HDR 4K演示片(高码率 HEVC 60fps 10bit)[2160P/MP4/724MB]

  [复制链接]
发表于 2017-5-14 01:09 | 显示全部楼层 |阅读模式
索尼 BRAVIA OLED HDR 4K演示片(高码率 HEVC 60fps 10bit)[2160P/MP4/724MB]
SONY.BRAVIA.OLED.HDR.4K.DEMO.mp4_2017_01.png SONY.BRAVIA.OLED.HDR.4K.DEMO.mp4_2017_02.png SONY.BRAVIA.OLED.HDR.4K.DEMO.mp4_2017_03.png SONY.BRAVIA.OLED.HDR.4K.DEMO.mp4_2017_04.png SONY.BRAVIA.OLED.HDR.4K.DEMO.mp4_2017_05.png SONY.BRAVIA.OLED.HDR.4K.DEMO.mp4_2017_06.png
General
Complete name : SONY.BRAVIA.OLED.HDR.4K.DEMO.mp4
Format : MPEG-4
Format profile : Base Media
Codec ID : isom (isom)
File size : 724 MiB
Duration : 1 min 23 s
Overall bit rate mode : Variable
Overall bit rate : 73.1 Mbps
Encoded date : UTC 2016-10-24 05:40:14
Tagged date : UTC 2016-10-24 05:40:14

Video
ID : 1
Format : HEVC
Format/Info : High Efficiency Video Coding
Format profile : Main 10@L5.1@High
Codec ID : hvc1
Codec ID/Info : High Efficiency Video Coding
Duration : 1 min 23 s
Bit rate : 72.9 Mbps
Maximum bit rate : 94.2 Mbps
Width : 3840 pixels
Height : 2160 pixels
Display aspect ratio : 16:9
Frame rate mode : Constant
Frame rate : 59.940 (60000/1001) FPS
Color space : YUV
Chroma subsampling : 4:2:0 (Type 2)
Bit depth : 10 bits
Bits/(Pixel*Frame) : 0.147
Stream size : 722 MiB (100%)
Encoded date : UTC 2016-10-24 06:37:11
Tagged date : UTC 2016-10-24 05:40:23
Color range : Limited
Color primaries : BT.2020
Transfer characteristics : SMPTE ST 2084
Matrix coefficients : BT.2020 non-constant
Mastering display color primar : R: x=1.000000 y=1.000000, G: x=1.000000 y=1.000000, B: x=1.000000 y=1.000000, White point: x=1.000000 y=1.000000
Mastering display luminance : min: 0.1000 cd/m2, max: 0.5000 cd/m2

Audio
ID : 2
Format : AAC
Format/Info : Advanced Audio Codec
Format profile : LC
Codec ID : 40
Duration : 1 min 23 s
Source duration : 1 min 23 s
Bit rate mode : Variable
Bit rate : 192 kbps
Maximum bit rate : 197 kbps
Channel(s) : 2 channels
Channel positions : Front: L R
Sampling rate : 48.0 kHz
Frame rate : 46.875 FPS (1024 spf)
Compression mode : Lossy
Stream size : 1.90 MiB (0%)
Source stream size : 1.90 MiB (0%)
Language : English
Encoded date : UTC 2016-10-24 06:37:11
Tagged date : UTC 2016-10-24 05:40:23
HDR ! So your TV has to be able to play this format !
建议在4K HDR电视上观看才能体验最佳效果!

播放器 : Potplaye(2017版本)

MP4百度云盘
游客,如果您要查看本帖隐藏内容请回复
发表于 2017-5-14 03:43 | 显示全部楼层
虽不明,但觉厉!
回复 支持 反对

使用道具 举报

发表于 2017-5-14 05:48 | 显示全部楼层
强烈支持楼主ing……
回复 支持 反对

使用道具 举报

发表于 2017-5-14 06:08 | 显示全部楼层
很给力,ZNDS有你更精彩!
回复 支持 反对

使用道具 举报

发表于 2017-5-14 08:00 | 显示全部楼层
很给力,ZNDS有你更精彩!
回复 支持 反对

使用道具 举报

发表于 2017-5-14 08:03 | 显示全部楼层
aiyou,bucuoyo
回复 支持 反对

使用道具 举报

发表于 2017-5-14 08:35 | 显示全部楼层
#在这里强烈支持楼主快速回复#
回复 支持 反对

使用道具 举报

发表于 2017-5-14 09:12 | 显示全部楼层
强烈支持楼主ing……
回复 支持 反对

使用道具 举报

发表于 2017-5-14 09:19 | 显示全部楼层
谢谢
回复 支持 反对

使用道具 举报

发表于 2017-5-14 10:02 | 显示全部楼层
很给力,ZNDS有你更精彩!
回复 支持 反对

使用道具 举报

您需要登录后才可以回帖 登录 | 立即注册

本版积分规则

关闭

推荐应用 上一条 /6 下一条

Archiver|新帖|标签|软件|Sitemap|ZNDS智能电视网 ( 浙ICP备14000780号 )

增值电信业务经营许可证:浙B2-20150411 丨 浙公网安备 33010802006145号

浙网文(2016)6491-366号 | GMT+8, 2017-11-24 04:29 , Processed in 0.052586 second(s), 11 queries , MemCache On.

Powered by Discuz!

监督举报:report#znds.com (请将#替换为@)

© 2007-2017 ZNDS.Com

快速回复 返回顶部 返回列表