首页 收藏 QQ群
 网站导航
开启辅助访问

QQ登录

只需一步,快速开始

扫一扫,访问微社区

立即注册 找回密码
查看: 225088|回复: 1759
[4K视频]

[索尼4K演示片] 另一个世界 (高码率 HEVC) [2160P/MKV/874MB]

  [复制链接]
发表于 2017-3-6 23:56 | 显示全部楼层 |阅读模式
[索尼4K演示片] 另一个世界 (高码率 HEVC) [2160P/MKV/874MB]
Sony.4K.DEMO_Another.World_HEVC.mkv_2017_01.jpg Sony.4K.DEMO_Another.World_HEVC.mkv_2017_02.jpg Sony.4K.DEMO_Another.World_HEVC.mkv_2017_03.jpg Sony.4K.DEMO_Another.World_HEVC.mkv_2017_04.jpg Sony.4K.DEMO_Another.World_HEVC.mkv_2017_05.jpg Sony.4K.DEMO_Another.World_HEVC.mkv_2017_06.jpg Sony.4K.DEMO_Another.World_HEVC.mkv_2017_07.jpg Sony.4K.DEMO_Another.World_HEVC.mkv_2017_08.jpg Sony.4K.DEMO_Another.World_HEVC.mkv_2017_09.jpg Sony.4K.DEMO_Another.World_HEVC.mkv_2017_10.jpg Sony.4K.DEMO_Another.World_HEVC.mkv_2017_11.jpg Sony.4K.DEMO_Another.World_HEVC.mkv_2017_12.jpg
General
Unique ID : 178476810907860845411184244791115159048 (0x86456229D1DB39B89787E73035CE9608)
Complete name : Sony.4K.DEMO_Another.World_HEVC.mkv
Format : Matroska
Format version : Version 4 / Version 2
File size : 874 MiB
Duration : 3 min 11 s
Overall bit rate : 38.3 Mbps
Encoded date : UTC 2017-01-07 15:56:33
Writing application : mkvmerge v9.6.0 ('Slave To Your Mind') 64bit
Writing library : libebml v1.3.4 + libmatroska v1.4.5
Encoding Gui : Hybrid 2016.12.23.1

Video
ID : 1
Format : HEVC
Format/Info : High Efficiency Video Coding
Format profile : Main@L5.1@High
Codec ID : V_MPEGH/ISO/HEVC
Duration : 3 min 11 s
Bit rate : 38.2 Mbps
Width : 3840 pixels
Height : 2160 pixels
Display aspect ratio : 16:9
Frame rate mode : Constant
Frame rate : 23.976 (24000/1001) FPS
Color space : YUV
Chroma subsampling : 4:2:0
Bit depth : 8 bits
Bits/(Pixel*Frame) : 0.192
Stream size : 871 MiB (100%)
Writing library : x265 2.1+74-e5759d587ae2:[Windows][GCC 6.2.0][64 bit] 8bit+10bit+12bit
Encoding settings : cpuid=1173503 / frame-threads=3 / numa-pools=8 / wpp / no-pmode / no-pme / no-psnr / ssim / log-level=2 / input-csp=1 / input-res=3840x2160 / interlace=0 / total-frames=0 / level-idc=51 / high-tier=1 / uhd-bd=0 / ref=5 / no-allow-non-conformance / repeat-headers / annexb / aud / hrd / info / hash=0 / no-temporal-layers / open-gop / min-keyint=23 / keyint=250 / bframes=8 / b-adapt=2 / b-pyramid / bframe-bias=0 / rc-lookahead=60 / lookahead-slices=1 / scenecut=40 / no-intra-refresh / ctu=32 / min-cu-size=8 / no-rect / no-amp / max-tu-size=32 / tu-inter-depth=2 / tu-intra-depth=2 / limit-tu=0 / rdoq-level=1 / signhide / no-tskip / nr-intra=0 / nr-inter=0 / no-constrained-intra / no-strong-intra-smoothing / max-merge=2 / limit-refs=3 / no-limit-modes / me=2 / subme=5 / merange=60 / temporal-mvp / weightp / weightb / no-analyze-src-pics / deblock=-3:-3 / no-sao / no-sao-non-deblock / rd=4 / no-early-skip / no-rskip / no-fast-intra / no-tskip-fast / no-cu-lossless / no-b-intra / rdpenalty=0 / psy-rd=2.00 / psy-rdoq=3.00 / no-rd-refine / analysis-mode=0 / no-lossless / cbqpoffs=0 / crqpoffs=0 / rc=crf / crf=22.0 / qcomp=0.80 / qpstep=6 / stats-write=0 / stats-read=0 / vbv-maxrate=160000 / vbv-bufsize=160000 / vbv-init=0.9 / crf-max=0.0 / crf-min=0.0 / ipratio=1.50 / pbratio=1.10 / aq-mode=1 / aq-strength=0.50 / no-cutree / zone-count=0 / no-strict-cbr / qg-size=32 / no-rc-grain / qpmax=69 / qpmin=0 / sar=1 / overscan=0 / videoformat=5 / range=0 / colorprim=2 / transfer=2 / colormatrix=1 / chromaloc=0 / display-window=0 / max-cll=0,0 / min-luma=0 / max-luma=255 / log2-max-poc-lsb=8 / vui-timing-info / vui-hrd-info / slices=1 / opt-qp-pps / opt-ref-list-length-pps / no-multi-pass-opt-rps / scenecut-bias=0.05
Language : English
Default : Yes
Forced : Yes
Color range : Limited
Matrix coefficients : BT.709

Audio
ID : 2
Format : AAC
Format/Info : Advanced Audio Codec
Format profile : LC
Codec ID : A_AAC
Duration : 3 min 11 s
Bit rate : 128 kbps
Channel(s) : 2 channels
Channel positions : Front: L R
Sampling rate : 48.0 kHz
Frame rate : 46.875 FPS (1024 spf)
Compression mode : Lossy
Stream size : 2.92 MiB (0%)
Language : English
Default : Yes
Forced : No
播放器 : Potplaye/MPC-HC
建议在大屏幕电视上观看才能体验最佳效果

MKV百度云盘
游客,如果您要查看本帖隐藏内容请回复

上一篇:[索尼4K演示片] 婴儿 (HEVC 12bit) [2160P/MKV/30.8MB]
下一篇:[韩国UMAX.UHD]天堂槟城 2015(HEVC 60fps 10bit)[2160P/TS/10.4GB]
发表于 2017-3-7 00:05 | 显示全部楼层
强烈支持楼主ing……
回复 支持 反对

使用道具 举报

发表于 2017-3-7 00:48 | 显示全部楼层
感谢楼主分享~~~  辛苦了
回复 支持 反对

使用道具 举报

发表于 2017-3-7 01:00 | 显示全部楼层
感谢分享
回复 支持 反对

使用道具 举报

发表于 2017-3-7 01:24 | 显示全部楼层
实在是太强了,这个好清晰啊!!!
回复 支持 反对

使用道具 举报

发表于 2017-3-7 03:09 | 显示全部楼层
最近电影少了
回复 支持 反对

使用道具 举报

发表于 2017-3-7 03:20 | 显示全部楼层
很给力,ZNDS有你更精彩!
回复 支持 反对

使用道具 举报

发表于 2017-3-7 05:51 | 显示全部楼层
很给力,ZNDS有你更精彩!
回复 支持 反对

使用道具 举报

发表于 2017-3-7 06:08 | 显示全部楼层
强烈支持楼主ing……
回复 支持 反对

使用道具 举报

发表于 2017-3-7 06:30 | 显示全部楼层
下好了才能去测试电视
回复 支持 反对

使用道具 举报

发表于 2017-3-7 08:13 | 显示全部楼层
我只是路过打酱油的。
回复 支持 反对

使用道具 举报

发表于 2017-3-7 08:29 | 显示全部楼层
正需要啊,感谢楼主无私分享!
回复 支持 反对

使用道具 举报

发表于 2017-3-7 08:54 | 显示全部楼层
[索尼4K演示片] 另一个世界
回复 支持 反对

使用道具 举报

发表于 2017-3-7 09:01 | 显示全部楼层
#在这里快速回复# 感谢楼主分享~~~  辛苦了
回复 支持 反对

使用道具 举报

发表于 2017-3-7 09:15 | 显示全部楼层
太好了精彩
回复 支持 反对

使用道具 举报

您需要登录后才可以回帖 登录 | 立即注册

本版积分规则

关闭

推荐应用 上一条 /6 下一条

Archiver|新帖|标签|软件|Sitemap|ZNDS智能电视网 ( 浙ICP备14000780号 )

增值电信业务经营许可证:浙B2-20150411 丨 浙公网安备 33010802006145号

浙网文(2016)6491-366号 | GMT+8, 2019-1-21 12:07 , Processed in 0.134567 second(s), 30 queries , MemCache On.

Powered by Discuz!

监督举报:report#znds.com (请将#替换为@)

© 2007-2019 ZNDS.Com

快速回复 返回顶部 返回列表