首页 收藏 QQ群
 网站导航
开启辅助访问

QQ登录

只需一步,快速开始

扫一扫,访问微社区

立即注册 找回密码
查看: 265359|回复: 891
[4K视频]

LG 4K HDR 演示片 - 杜比预告片(HEVC 10bit) [2160P/TS/298MB]

  [复制链接]
发表于 2017-2-5 21:56 | 显示全部楼层 |阅读模式
LG 4K HDR 演示片 - 杜比预告片(HEVC 10bit) [2160P/TS/298MB]
LG.HDR.4K.DEMO_Dolby.Trailer-OLED.ts_2017_01.jpg LG.HDR.4K.DEMO_Dolby.Trailer-OLED.ts_2017_02.jpg LG.HDR.4K.DEMO_Dolby.Trailer-OLED.ts_2017_03.jpg LG.HDR.4K.DEMO_Dolby.Trailer-OLED.ts_2017_04.jpg LG.HDR.4K.DEMO_Dolby.Trailer-OLED.ts_2017_05.jpg LG.HDR.4K.DEMO_Dolby.Trailer-OLED.ts_2017_06.jpg LG.HDR.4K.DEMO_Dolby.Trailer-OLED.ts_2017_07.jpg LG.HDR.4K.DEMO_Dolby.Trailer-OLED.ts_2017_08.jpg LG.HDR.4K.DEMO_Dolby.Trailer-OLED.ts_2017_09.jpg LG.HDR.4K.DEMO_Dolby.Trailer-OLED.ts_2017_10.jpg LG.HDR.4K.DEMO_Dolby.Trailer-OLED.ts_2017_11.jpg LG.HDR.4K.DEMO_Dolby.Trailer-OLED.ts_2017_12.jpg
General
ID : 1 (0x1)
Complete name : LG.HDR.4K.DEMO_Dolby.Trailer-OLED.ts
Format : MPEG-TS
File size : 298 MiB
Duration : 1 min 17 s
Overall bit rate mode : Constant
Overall bit rate : 32.1 Mbps

Video
ID : 33 (0x21)
Menu ID : 2 (0x2)
Format : HEVC
Format/Info : High Efficiency Video Coding
Format profile : Main 10@L5@Main
Codec ID : 36
Duration : 1 min 16 s
Bit rate : 29.7 Mbps
Width : 3840 pixels
Height : 2160 pixels
Display aspect ratio : 16:9
Frame rate : 23.976 (24000/1001) FPS
Color space : YUV
Chroma subsampling : 4:2:0
Bit depth : 10 bits
Bits/(Pixel*Frame) : 0.150
Stream size : 273 MiB (91%)

Audio
ID : 35 (0x23)
Menu ID  : 2 (0x2)
Format : E-AC-3
Format/Info : Enhanced Audio Coding 3
Format settings, Endianness : Big
Codec ID : 135
Duration : 1 min 17 s
Bit rate mode : Constant
Bit rate : 768 kbps
Channel(s) : 6 channels
Channel positions : Front: L C R, Side: L R, LFE
Sampling rate : 48.0 kHz
Frame rate : 187.500 FPS (256 spf)
Compression mode : Lossy
Delay relative to video : -948 ms
Stream size : 7.14 MiB (2%)
HDR ! So your TV has to be able to play this format !
HDR系统截图只供视频内容参考
真真的画质和色彩只有在HDR电视上观看才能体验最佳效果!
播放器 : Potplaye/MPC-HC


TS百度云盘

上一篇:【8K虐机视频】GFriend - Rough (4in1)[8K][HEVC-60fps-10bit]
下一篇:LG 4K HDR 演示片 - 杜比比较(HEVC 10bit) [2160P/TS/294MB]
发表于 2017-2-5 23:21 | 显示全部楼层
楼主用心了,内容非常精彩。
回复 支持 反对

使用道具 举报

发表于 2017-2-6 00:02 | 显示全部楼层
楼主用心了,内容非常精彩
回复 支持 反对

使用道具 举报

发表于 2017-2-6 00:12 | 显示全部楼层
强烈支持楼主ing……
回复 支持 反对

使用道具 举报

发表于 2017-2-6 00:17 | 显示全部楼层
wojiushixiangkankannengbunengxiazai
回复 支持 反对

使用道具 举报

发表于 2017-2-6 01:11 | 显示全部楼层
精华内容,楼主V5!
回复 支持 反对

使用道具 举报

发表于 2017-2-6 01:14 | 显示全部楼层
精华内容,楼主V5!
回复 支持 反对

使用道具 举报

发表于 2017-2-6 04:14 | 显示全部楼层
强烈支持楼主ing……
回复 支持 反对

使用道具 举报

发表于 2017-2-6 07:23 | 显示全部楼层
谢谢楼主无私分享
回复 支持 反对

使用道具 举报

发表于 2017-2-6 07:43 | 显示全部楼层
内容非常精彩。
回复 支持 反对

使用道具 举报

您需要登录后才可以回帖 登录 | 立即注册

本版积分规则

关闭

推荐应用 上一条 /7 下一条

Archiver|新帖|标签|软件|Sitemap|ZNDS智能电视网 ( 浙ICP备14000780号 )

增值电信业务经营许可证:浙B2-20150411 丨 浙公网安备 33010802006145号

浙网文(2016)6491-366号 | GMT+8, 2019-11-15 20:34 , Processed in 0.069823 second(s), 18 queries , MemCache On.

Powered by Discuz!

监督举报:report#znds.com (请将#替换为@)

© 2007-2019 ZNDS.Com

快速回复 返回顶部 返回列表