首页 收藏 QQ群
 网站导航
开启辅助访问

QQ登录

只需一步,快速开始

扫一扫,访问微社区

立即注册 找回密码
查看: 97430|回复: 405
[4K电影]

[4K高清短片]巴西里约热内卢 - 基督像 2016[2160P/MP4/1.95GB]

  [复制链接]
发表于 2016-8-16 00:06 | 显示全部楼层 |阅读模式
[4K高清短片]巴西里约热内卢 - 基督像 2016[2160P/MP4/1.95GB]
snapshot20160815230100.jpg snapshot20160815230232.jpg snapshot20160815230537.jpg snapshot20160815230729.jpg snapshot20160815231011.jpg snapshot20160815231439.jpg snapshot20160815231601.jpg snapshot20160815231625.jpg snapshot20160815231722.jpg
General
Complete name : Christ the Redeemer - Rio de Janeiro - Brazil (4K).mp4
Format : MPEG-4
Format profile : Base Media
Codec ID : isom (isom/iso2/avc1/mp41)
File size : 1.95 GiB
Duration : 12 min
Overall bit rate : 22.8 Mbps
Writing application : Lavf56.25.101

Video
ID : 1
Format : AVC
Format/Info : Advanced Video Codec
Format profile : High@L5.1
Format settings, CABAC : No
Format settings, ReFrames : 2 frames
Codec ID : avc1
Codec ID/Info : Advanced Video Coding
Duration : 12 min
Bit rate : 22.7 Mbps
Width : 3840 pixels
Height : 2160 pixels
Display aspect ratio : 16:9
Frame rate mode : Constant
Frame rate : 25.000 FPS
Color space : YUV
Chroma subsampling : 4:2:0
Bit depth : 8 bits
Scan type : Progressive
Bits/(Pixel*Frame) : 0.109
Stream size : 1.94 GiB (99%)
Color range : Limited
Color primaries : BT.709
Transfer characteristics : BT.709
Matrix coefficients : BT.709

Audio
ID : 2
Format : AAC
Format/Info : Advanced Audio Codec
Mode extension : LC
Codec ID : 40
Duration : 12 min
Bit rate mode : Constant
Bit rate : 126 kbps  
Channel(s) : 2 channels
Channel positions : Front: L R
Sampling rate : 44.1 KHz
Frame rate : 43.066 FPS (1024 spf)
Compression mode : Lossy
Stream size : 11.0 MiB (1%)
Default : Yes
Altternate group : 1

百度云盘

游客,如果您要查看本帖隐藏内容请回复



上一篇:[4K高清]巴西的空手道女神[2160P/MP4/288MB]
下一篇:请问下载4K火星救援的链接在哪,谢谢指点
发表于 2016-8-16 07:28 | 显示全部楼层
我有是第一个
回复 支持 反对

使用道具 举报

发表于 2016-8-16 07:54 | 显示全部楼层
谢谢
回复 支持 反对

使用道具 举报

发表于 2016-8-16 08:41 | 显示全部楼层
强烈支持楼主ing……
回复 支持 反对

使用道具 举报

发表于 2016-8-16 09:12 | 显示全部楼层
正需要啊,感谢楼主无私分享!
回复 支持 反对

使用道具 举报

发表于 2016-8-16 12:43 | 显示全部楼层
俯瞰苍生
回复 支持 反对

使用道具 举报

发表于 2016-8-16 14:21 | 显示全部楼层
强烈支持楼主ing……
回复 支持 反对

使用道具 举报

发表于 2016-8-16 17:39 | 显示全部楼层
强烈支持楼主ing……
回复 支持 反对

使用道具 举报

发表于 2016-8-16 18:20 | 显示全部楼层
谢谢楼主
回复 支持 反对

使用道具 举报

发表于 2016-8-16 19:31 | 显示全部楼层
很给力,ZNDS有你更精彩!
回复 支持 反对

使用道具 举报

发表于 2016-8-16 19:37 | 显示全部楼层
正需要啊,感谢楼主无私分享!
回复 支持 反对

使用道具 举报

发表于 2016-8-16 19:43 | 显示全部楼层
下载来看看
回复 支持 反对

使用道具 举报

发表于 2016-8-16 19:55 | 显示全部楼层
楼主用心了,内容非常精彩。
回复 支持 反对

使用道具 举报

发表于 2016-8-16 20:09 | 显示全部楼层
楼主用心了,内容非常精彩。
回复 支持 反对

使用道具 举报

发表于 2016-8-16 20:20 | 显示全部楼层
感谢分享,ZNDS有你更精彩:)谢谢楼主,分享这么好的视频
回复 支持 反对

使用道具 举报

您需要登录后才可以回帖 登录 | 立即注册

本版积分规则

关闭

推荐应用 上一条 /6 下一条

Archiver|新帖|标签|软件|Sitemap|ZNDS智能电视网 ( 浙ICP备14000780号 )

增值电信业务经营许可证:浙B2-20150411 丨 浙公网安备 33010802006145号

浙网文(2016)6491-366号 | GMT+8, 2019-1-21 11:01 , Processed in 0.108494 second(s), 27 queries , MemCache On.

Powered by Discuz!

监督举报:report#znds.com (请将#替换为@)

© 2007-2019 ZNDS.Com

快速回复 返回顶部 返回列表