首页 收藏 QQ群
 网站导航
开启辅助访问

QQ登录

只需一步,快速开始

扫一扫,访问微社区

立即注册 找回密码
查看: 408699|回复: 2093
[4K电影]

[4K高清短片]中国西安 - 城墙 雁塔[2160P/MP4/530MB]

  [复制链接]
发表于 2016-8-11 08:23 | 显示全部楼层 |阅读模式
本帖最后由 klpoij89 于 2016-8-11 08:52 编辑

[4K高清短片]中国西安 - 城墙 雁塔[2160P/MP4/530MB]
Xi'an, China- City Walls & Goose Pagodas in 4K (Ultra HD).mp4_20160811_0616.jpg Xi'an, China- City Walls & Goose Pagodas in 4K (Ultra HD).mp4_20160811_0616.jpg Xi'an, China- City Walls & Goose Pagodas in 4K (Ultra HD).mp4_20160811_0616.jpg Xi'an, China- City Walls & Goose Pagodas in 4K (Ultra HD).mp4_20160811_0617.jpg Xi'an, China- City Walls & Goose Pagodas in 4K (Ultra HD).mp4_20160811_0621.jpg Xi'an, China- City Walls & Goose Pagodas in 4K (Ultra HD).mp4_20160811_0622.jpg Xi'an, China- City Walls & Goose Pagodas in 4K (Ultra HD).mp4_20160811_0622.jpg Xi'an, China- City Walls & Goose Pagodas in 4K (Ultra HD).mp4_20160811_0623.jpg Xi'an, China- City Walls & Goose Pagodas in 4K (Ultra HD).mp4_20160811_0623.jpg Xi'an, China- City Walls & Goose Pagodas in 4K (Ultra HD).mp4_20160811_0623.jpg Xi'an, China- City Walls & Goose Pagodas in 4K (Ultra HD).mp4_20160811_0624.jpg Xi'an, China- City Walls & Goose Pagodas in 4K (Ultra HD).mp4_20160811_0624.jpg Xi'an, China- City Walls & Goose Pagodas in 4K (Ultra HD).mp4_20160811_0625.jpg Xi'an, China- City Walls & Goose Pagodas in 4K (Ultra HD).mp4_20160811_0625.jpg Xi'an, China- City Walls & Goose Pagodas in 4K (Ultra HD).mp4_20160811_0626.jpg Xi'an, China- City Walls & Goose Pagodas in 4K (Ultra HD).mp4_20160811_0626.jpg
General
Complete name : Xi'an, China- City Walls & Goose Pagodas in 4K (Ultra HD).mp4
Format : MPEG-4
Format profile : Base Media
Codec ID : dash (isom/iso2/avc1/mp41)
File size : 530 MiB
Duration : 4 min
Overall bit rate : 16.7 Mbps
Writing application : Lavf56.25.101

Video
ID : 1
Format : AVC
Format/Info : Advanced Video Codec
Format profile : High@L5.1
Format settings, CABAC : No
Format settings, ReFrames : 2 frames
Codec ID : avc1
Codec ID/Info : Advanced Video Coding
Duration : 4 min
Bit rate : 16.5 Mbps
Width : 3840 pixels
Height : 2160 pixels
Display aspect ratio : 16:9
Frame rate mode : Constant
Frame rate : 29.970 (30000/1001) FPS
Color space : YUV
Chroma subsampling : 4:2:0
Bit depth : 8 bits
Scan type : Progressive
Bits/(Pixel*Frame) : 0.067
Stream size : 529 MiB (99%)
Color range : Limited
Color primaries : BT.709
Transfer characteristics : BT.709
Matrix coefficients : BT.709

Audio
ID : 2
Format : AAC
Format/Info : Advanced Audio Codec
Mode extension : LC
Codec ID : 40
Duration : 4 min
Bit rate mode : Constant
Bit rate : 126 kbps  
Channel(s) : 2 channels
Channel positions : Front: L R
Sampling rate : 44.1 KHz
Frame rate : 43.066 FPS (1024 spf)
Compression mode : Lossy
Stream size : 4.02 MiB (1%)
Default : Yes
Altternate group : 1

百度云盘




上一篇:奢华的迪拜夜景 4K短片
下一篇:电视上看今夏最猛动作片《危城》,爱奇艺TV追剧必备!
发表于 2016-8-11 14:22 | 显示全部楼层
很给力,ZNDS有你更精彩!
回复 支持 0 反对 1

使用道具 举报

发表于 2016-8-11 09:03 | 显示全部楼层
这个不错   感谢楼主的分享!
回复 支持 反对

使用道具 举报

发表于 2016-8-11 09:47 | 显示全部楼层
还不错哟
回复 支持 反对

使用道具 举报

发表于 2016-8-11 09:48 | 显示全部楼层
很给力,ZNDS有你更精彩!
回复 支持 反对

使用道具 举报

发表于 2016-8-11 10:11 | 显示全部楼层
感谢分享,ZNDS有你更精彩:)
回复 支持 反对

使用道具 举报

发表于 2016-8-11 10:37 | 显示全部楼层
精华内容,楼主V5!
回复 支持 反对

使用道具 举报

发表于 2016-8-11 11:10 | 显示全部楼层
精华内容,楼主V5!
回复 支持 反对

使用道具 举报

发表于 2016-8-11 11:15 | 显示全部楼层
嘻嘻嘻谢谢谢谢
回复 支持 反对

使用道具 举报

发表于 2016-8-11 11:20 | 显示全部楼层
谢谢
回复 支持 反对

使用道具 举报

您需要登录后才可以回帖 登录 | 立即注册

本版积分规则

关闭

推荐应用 上一条 /7 下一条

Archiver|新帖|标签|软件|Sitemap|ZNDS智能电视网 ( 浙ICP备14000780号 )

增值电信业务经营许可证:浙B2-20150411 丨 浙公网安备 33010802006145号

浙网文(2016)6491-366号 | GMT+8, 2019-9-15 22:12 , Processed in 0.109242 second(s), 22 queries , MemCache On.

Powered by Discuz!

监督举报:report#znds.com (请将#替换为@)

© 2007-2019 ZNDS.Com

快速回复 返回顶部 返回列表