首页 收藏 QQ群
 网站导航
开启辅助访问

QQ登录

只需一步,快速开始

扫一扫,访问微社区

立即注册 找回密码
查看: 825774|回复: 3959
[4K电影]

[4K电影] 三星专用:倾情打造4K家庭影院的震撼感受 (变形...

    [复制链接]
发表于 2014-12-30 10:32 | 显示全部楼层 |阅读模式
[三星专用]大气蓬勃 感受4K家庭影院的震撼(变形金刚4+3预告片)H265/1.3G/百度
55.jpg 44.jpg 33.jpg 22.jpg 11.jpg 66.jpg General
ID : 0 (0x0)
Complete name : E:\4K中国\UHD_ENT_Transformer_Quad.ts
Format : MPEG-TS
File size : 1.38 GiB
Duration : 3mn 51s
Overall bit rate mode : Constant
Overall bit rate : 51.4 Mbps

Video
ID : 257 (0x101)
Menu ID : 1 (0x1)
Format : HEVC
Format/Info : High Efficiency Video Coding
Codec ID : 36
Duration : 3mn 50s
Bit rate : 48.7 Mbps
Stream size : 1.31 GiB (94%)

Audio
ID : 258 (0x102)
Menu ID : 1 (0x1)
Format : AAC
Format/Info : Advanced Audio Codec
Format version : Version 4
Format profile : LC
Muxing mode : ADTS
Codec ID : 15
Duration : 3mn 50s
Bit rate mode : Constant
Bit rate : 126 Kbps
Channel(s) : 2 channels
Channel positions : Front: L R
Sampling rate : 48.0 KHz
Compression mode : Lossy
Stream size : 3.45 MiB (0%)

这个应该是 变形金刚4+3+2+1混搭的4K演示片.

清晰度不错,无论是细节还是整体画面感,都很能代表4K电影的顶级水准。

评分

参与人数 1金币 +2 收起 理由
junerjoe + 2 请重新上链接

查看全部评分


上一篇:4K UHD高清MV:粉嫩女团APink的秘密 - secret garden[2160p/百度盘]
下一篇:[欧洲航天局.4K.资料片]适合一家人观看,给孩子科普知识!
发表于 2014-12-30 11:49 | 显示全部楼层
求下载地址

点评

很给力,ZNDS有你更精彩!  详情 回复 发表于 2017-3-28 12:59
回复 支持 87 反对 5

使用道具 举报

发表于 2014-12-30 11:29 | 显示全部楼层
很给力,ZNDS有你更精彩!
回复 支持 41 反对 1

使用道具 举报

发表于 2014-12-30 12:05 | 显示全部楼层
谢谢分享
回复 支持 2 反对 0

使用道具 举报

发表于 2014-12-30 11:51 | 显示全部楼层
很给力,ZNDS有你更精彩!
回复 支持 2 反对 0

使用道具 举报

发表于 2014-12-30 13:20 | 显示全部楼层
趋势不错
回复 支持 反对

使用道具 举报

发表于 2014-12-30 13:29 | 显示全部楼层
强烈支持楼主ing……
回复 支持 反对

使用道具 举报

发表于 2014-12-30 13:33 | 显示全部楼层
感谢分享,ZNDS有你更精彩:)
回复 支持 反对

使用道具 举报

发表于 2014-12-30 13:41 | 显示全部楼层
很不错!
回复 支持 反对

使用道具 举报

发表于 2014-12-30 17:01 | 显示全部楼层
图片清晰,可是这部没前几部好看
回复 支持 反对

使用道具 举报

您需要登录后才可以回帖 登录 | 立即注册

本版积分规则

关闭

推荐应用 上一条 /7 下一条

Archiver|新帖|标签|软件|Sitemap|ZNDS智能电视网 ( 浙ICP备14000780号 )

增值电信业务经营许可证:浙B2-20150411 丨 浙公网安备 33010802006145号

浙网文(2016)6491-366号 | GMT+8, 2019-8-19 01:15 , Processed in 0.174250 second(s), 47 queries .

Powered by Discuz!

监督举报:report#znds.com (请将#替换为@)

© 2007-2019 ZNDS.Com

快速回复 返回顶部 返回列表