查看: 79554|回复: 203
[4K视频]

【4K演示片】松下摄录机 FZ100 4K演示片[3840×2160p/257M/百度盘]

  [复制链接]
发表于 2014-10-20 10:40 | 显示全部楼层 |阅读模式
本帖最后由 5to5 于 2014-10-21 10:13 编辑


4K演示片】松下摄录机 FZ100 4K演示片[3840×2160p/257M/百度盘]

1.jpg 2.jpg 3.jpg



General
Format                         : MPEG-4
Format profile                 : Base Media
Codec ID                       : isom
File size                      : 258 MiB
Duration                       : 2mn 12s
Overall bit rate               : 16.3 Mbps
Writing application            : Lavf54.29.104

Video
ID                             : 1
Format                         : AVC
Format/Info                    : Advanced Video Codec
Format profile                 : High@L5.1
Format settings, CABAC         : No
Format settings, ReFrames      : 2 frames
Codec ID                       : avc1
Codec ID/Info                  : Advanced Video Coding
Duration                       : 2mn 12s
Bit rate                       : 16.2 Mbps
Width                          : 3 840 pixels
Height                         : 2 160 pixels
Display aspect ratio           : 16:9
Frame rate mode                : Constant
Frame rate                     : 29.970 fps
Color space                    : YUV
Chroma subsampling             : 4:2:0
Bit depth                      : 8 bits
Scan type                      : Progressive
Bits/(Pixel*Frame)             : 0.065
Stream size                    : 256 MiB (99%)

Audio
ID                             : 2
Format                         : AAC
Format/Info                    : Advanced Audio Codec
Format profile                 : LC
Codec ID                       : 40
Duration                       : 2mn 12s
Bit rate mode                  : Constant
Bit rate                       : 126 Kbps
Channel(s)                     : 2 channels
Channel positions              : Front: L R
Sampling rate                  : 44.1 KHz
Compression mode               : Lossy
Stream size                    : 1.98 MiB (1%)


百度盘:





上一篇:【4K演示片】三星H265:探秘新的世界[2160p/697M/百度盘]
下一篇:[4KMV] 7月夏季最新清凉MV Girl's Day - Darling[MP4/563.7M
发表于 2014-10-20 20:31 | 显示全部楼层
精华内容,楼主V5!
回复 支持 5 反对 0

使用道具 举报

发表于 2014-10-20 12:44 | 显示全部楼层
顶!!!!!!!!!!
回复 支持 4 反对 1

使用道具 举报

发表于 2014-10-21 10:13 | 显示全部楼层
感谢分享,ZNDS有你更精彩:)
回复 支持 反对

使用道具 举报

发表于 2014-10-21 13:10 | 显示全部楼层
asdfsd
回复 支持 反对

使用道具 举报

发表于 2014-10-21 18:23 | 显示全部楼层
楼主威武啊,ZNDS有你更给力!
回复 支持 反对

使用道具 举报

发表于 2014-10-22 12:47 | 显示全部楼层
很给力,ZNDS有你更精彩!
回复 支持 反对

使用道具 举报

发表于 2014-10-29 23:26 | 显示全部楼层
强烈支持楼主ing……
回复 支持 反对

使用道具 举报

发表于 2014-10-30 11:46 | 显示全部楼层
强烈支持楼主ing……
回复 支持 反对

使用道具 举报

发表于 2014-10-30 12:46 | 显示全部楼层
haibuc
回复 支持 反对

使用道具 举报

您需要登录后才可以回帖 登录 | 立即注册

本版积分规则

关闭

站长推荐 上一条 /7 下一条

Archiver|新帖|标签|软件|Sitemap|ZNDS智能电视网 ( 浙ICP备14000780号 )

网络信息服务信用承诺书 | 增值电信业务经营许可证:浙B2-20150411 丨 浙公网安备 33010802006145号

浙网文(2016)6491-366号 | GMT+8, 2020-7-12 15:38 , Processed in 0.052165 second(s), 14 queries , MemCache On.

Powered by Discuz!

监督举报:report#znds.com (请将#替换为@)

© 2007-2020 ZNDS.Com

快速回复 返回顶部 返回列表