首页 收藏 QQ群
 网站导航
开启辅助访问

QQ登录

只需一步,快速开始

扫一扫,访问微社区

立即注册 找回密码
查看: 3491|回复: 178
[1080P短片]

[高清演唱会]Taylor Swift - Blank Space(2015年全英音乐奖现场版)[...

  [复制链接]
发表于 2017-4-18 00:56:27 | 显示全部楼层 |阅读模式
[高清演唱会]Taylor Swift - Blank Space(2015年全英音乐奖现场版)[1080i/TS/1.37GB]
Taylor Swift - Blank Space - BRIT Awards 2015 1080i HDTV 45 Mbps MPA2.0 4-2-2 H..jpg Taylor Swift - Blank Space - BRIT Awards 2015 1080i HDTV 45 Mbps MPA2.0 4-2-2 H..jpg Taylor Swift - Blank Space - BRIT Awards 2015 1080i HDTV 45 Mbps MPA2.0 4-2-2 H..jpg Taylor Swift - Blank Space - BRIT Awards 2015 1080i HDTV 45 Mbps MPA2.0 4-2-2 H..jpg Taylor Swift - Blank Space - BRIT Awards 2015 1080i HDTV 45 Mbps MPA2.0 4-2-2 H..jpg Taylor Swift - Blank Space - BRIT Awards 2015 1080i HDTV 45 Mbps MPA2.0 4-2-2 H..jpg Taylor Swift - Blank Space - BRIT Awards 2015 1080i HDTV 45 Mbps MPA2.0 4-2-2 H..jpg Taylor Swift - Blank Space - BRIT Awards 2015 1080i HDTV 45 Mbps MPA2.0 4-2-2 H..jpg Taylor Swift - Blank Space - BRIT Awards 2015 1080i HDTV 45 Mbps MPA2.0 4-2-2 H..jpg Taylor Swift - Blank Space - BRIT Awards 2015 1080i HDTV 45 Mbps MPA2.0 4-2-2 H..jpg Taylor Swift - Blank Space - BRIT Awards 2015 1080i HDTV 45 Mbps MPA2.0 4-2-2 H..jpg Taylor Swift - Blank Space - BRIT Awards 2015 1080i HDTV 45 Mbps MPA2.0 4-2-2 H..jpg Taylor Swift - Blank Space - BRIT Awards 2015 1080i HDTV 45 Mbps MPA2.0 4-2-2 H..jpg
General
ID : 1 (0x1)
Complete name : Taylor Swift - Blank Space - BRIT Awards 2015 1080i HDTV 45 Mbps MPA2.0 4-2-2 H.264-TrollHD.ts
Format : MPEG-TS
File size : 1.37 GiB
Duration : 4 min 13 s
Overall bit rate mode : Variable
Overall bit rate : 46.3 Mbps
Maximum Overall bit rate : 35.5 Mbps

Video
ID : 4113 (0x1011)
Menu ID : 1 (0x1)
Format : AVC
Format/Info : Advanced Video Codec
Format profile : High 4:2:2@L4.1
Format settings, CABAC : Yes
Format settings, ReFrames : 4 frames
Codec ID : 27
Duration : 4 min 14 s
Bit rate mode : Variable
Bit rate : 43.7 Mbps
Maximum bit rate : 40.0 Mbps
Width : 1920 pixels
Height : 1080 pixels
Display aspect ratio : 16:9
Frame rate : 25.000 FPS
Color space : YUV
Chroma subsampling : 4:2:2
Bit depth : 8 bits
Scan type : Interlaced
Scan type, store method : Separated fields
Scan order : Top Field First
Bits/(Pixel*Frame) : 0.843
Stream size : 1.29 GiB (95%)
Color range : Limited
Color primaries : BT.709
Transfer characteristics : BT.709
Matrix coefficients : BT.709

Audio
ID : 4352 (0x1100)
Menu ID : 1 (0x1)
Format : MPEG Audio
Format version : Version 1
Format profile : Layer 2
Codec ID : 4
Duration : 4 min 13 s
Bit rate mode : Constant
Bit rate : 256 kbps
Channel(s) : 2 channels
Sampling rate : 48.0 kHz
Compression mode : Lossy
Delay relative to video : 30 ms
Stream size : 7.74 MiB (1%)
Language : English
播放器 :
Potplaye/MPC-HC

BT种子文件下载
游客,如果您要查看本帖隐藏内容请回复
1080i TS百度云盘
游客,如果您要查看本帖隐藏内容请回复
发表于 2017-4-18 06:12:19 | 显示全部楼层
强烈支持楼主ing……
回复 支持 反对

使用道具 举报

发表于 2017-4-18 07:26:38 | 显示全部楼层
感谢分享,ZNDS有你更精彩:)
回复 支持 反对

使用道具 举报

发表于 2017-4-18 07:43:19 | 显示全部楼层
强烈支持楼主ing……
回复 支持 反对

使用道具 举报

发表于 2017-4-18 07:54:00 | 显示全部楼层
回复 支持 反对

使用道具 举报

发表于 2017-4-18 08:59:22 | 显示全部楼层
前田由美前田由美
回复 支持 反对

使用道具 举报

发表于 2017-4-18 09:05:54 | 显示全部楼层
楼主辛苦了
回复 支持 反对

使用道具 举报

发表于 2017-4-18 09:35:26 | 显示全部楼层
强烈支持楼主ing……
回复 支持 反对

使用道具 举报

发表于 2017-4-18 09:54:05 | 显示全部楼层
楼主用心了,内容非常精彩。
回复 支持 反对

使用道具 举报

发表于 2017-4-18 10:15:31 | 显示全部楼层
这个真的好强大呀 必须下载看
回复 支持 反对

使用道具 举报

您需要登录后才可以回帖 登录 | 立即注册

本版积分规则

关闭

站长推荐 上一条 /4 下一条

Archiver|新帖|标签|软件|Sitemap|ZNDS智能电视网 ( 浙ICP备14000780号 )  

增值电信业务经营许可证:浙B2-20150411 丨 浙公网安备 33010802006145号

浙网文(2016)6491-366号 | GMT+8, 2017-5-24 19:35 , Processed in 0.132392 second(s), 24 queries , Memcache On.

Powered by Discuz!

监督举报:report#znds.com (请将#替换为@)

© 2007-2017 ZNDS.Com

快速回复 返回顶部 返回列表