首页 收藏 QQ群
 网站导航
开启辅助访问

QQ登录

只需一步,快速开始

扫一扫,访问微社区

立即注册 找回密码
查看: 11069|回复: 317
上一主题 下一主题
[4K电影]

[4K短片]美国犹他州布莱斯峡谷国家公园[2160P/MP4/1.21GB]

  [复制链接]
跳转到指定楼层
楼主
发表于 2016-12-2 23:56 | 只看该作者 |只看大图 回帖奖励 |倒序浏览 |阅读模式
本帖最后由 klpoij89 于 2017-1-11 23:50 编辑

[4K短片]美国犹他州布莱斯峡谷国家公园[2160P/MP4/1.21GB]
[4K短片]美国犹他州布莱斯峡谷国家公园[2160P/MP4/1.21GB]
布莱斯峡谷国家公园位于美国犹他州西南部,1928年建成,面积大约为145平方公里。其名字虽有峡谷一词,但其并非真正的峡谷,而是沿著庞沙冈特高原东面,由侵蚀而成的巨大自然露天剧场。其独特的地理结构称为岩柱,由风、河流里的水与冰侵蚀和湖床的沉积岩组成。位于其内的红色、橙色与白色的岩石形成了奇特的自然景观,因此其被誉为天然石俑的殿堂。考古研究显示此地区最少在1万年前已有人居住。有数千年历史的编筐时期的阿纳萨齐文化的工艺品在公园南部被发现。派尤特人在其他文明离开的同时进驻此山谷与高原附近的土地。这些美国土著主要以打猎与采集野果为生,但亦会以种植部份产物来补充食物来源。

General
Complete name : Bryce Canyon National Park, Utah, USA in 4K (Ultra HD).mp4
Format : MPEG-4
Format profile : Base Media
Codec ID : isom (isom/iso2/avc1/mp41)
File size : 1.21 GiB
Duration : 10 min 22 s
Overall bit rate : 16.6 Mbps
Writing application : Lavf56.25.101

Video
ID : 1
Format : AVC
Format/Info : Advanced Video Codec
Format profile : High@L5.1
Format settings, CABAC : No
Format settings, ReFrames : 2 frames
Codec ID : avc1
Codec ID/Info : Advanced Video Coding
Duration : 10 min 22 s
Bit rate : 16.5 Mbps
Width : 3840 pixels
Height : 2160 pixels
Display aspect ratio : 16:9
Frame rate mode : Constant
Frame rate : 29.970 (30000/1001) FPS
Color space : YUV
Chroma subsampling : 4:2:0
Bit depth : 8 bits
Scan type : Progressive
Bits/(Pixel*Frame) : 0.066
Stream size : 1.20 GiB (99%)
Color range : Limited
Color primaries : BT.709
Transfer characteristics : BT.709
Matrix coefficients : BT.709

Audio
ID : 2
Format : AAC
Format/Info : Advanced Audio Codec
Mode extension : LC
Codec ID : 40
Duration : 10 min 22 s
Bit rate mode : Constant
Bit rate : 126 kbps  
Channel(s) : 2 channels
Channel positions : Front: L R
Sampling rate : 44.1 KHz
Frame rate : 43.066 FPS (1024 spf)
Compression mode : Lossy
Stream size : 9.32 MiB (1%)
Default : Yes
Altternate group : 1
[4K短片]美国犹他州布莱斯峡谷国家公园[2160P/MP4/1.21GB] [4K短片]美国犹他州布莱斯峡谷国家公园[2160P/MP4/1.21GB] [4K短片]美国犹他州布莱斯峡谷国家公园[2160P/MP4/1.21GB] [4K短片]美国犹他州布莱斯峡谷国家公园[2160P/MP4/1.21GB] [4K短片]美国犹他州布莱斯峡谷国家公园[2160P/MP4/1.21GB] [4K短片]美国犹他州布莱斯峡谷国家公园[2160P/MP4/1.21GB] [4K短片]美国犹他州布莱斯峡谷国家公园[2160P/MP4/1.21GB] [4K短片]美国犹他州布莱斯峡谷国家公园[2160P/MP4/1.21GB] [4K短片]美国犹他州布莱斯峡谷国家公园[2160P/MP4/1.21GB] [4K短片]美国犹他州布莱斯峡谷国家公园[2160P/MP4/1.21GB] [4K短片]美国犹他州布莱斯峡谷国家公园[2160P/MP4/1.21GB] [4K短片]美国犹他州布莱斯峡谷国家公园[2160P/MP4/1.21GB] [4K短片]美国犹他州布莱斯峡谷国家公园[2160P/MP4/1.21GB] [4K短片]美国犹他州布莱斯峡谷国家公园[2160P/MP4/1.21GB] [4K短片]美国犹他州布莱斯峡谷国家公园[2160P/MP4/1.21GB] MP4百度云盘
游客,如果您要查看本帖隐藏内容请回复

评分

参与人数 1威望 +1 收起 理由
super32x + 1

查看全部评分

相关帖子

沙发
匿名  发表于 1970-1-1 08:00
post_deleted
回复 支持 反对

使用道具

板凳
发表于 2016-12-3 09:11 | 只看该作者
很给力,ZNDS有你更精彩!
回复 支持 反对

使用道具 举报

地板
发表于 2016-12-3 11:49 | 只看该作者
强烈支持楼主ing……
回复 支持 反对

使用道具 举报

5#
发表于 2016-12-3 13:51 | 只看该作者
感谢分享,ZNDS有你更精彩:)
回复 支持 反对

使用道具 举报

6#
匿名  发表于 2016-12-3 14:17
谢谢楼主分享
回复 支持 反对

使用道具

7#
发表于 2016-12-3 14:17 | 只看该作者
不错打开就撒了点进来时
回复 支持 反对

使用道具 举报

8#
发表于 2016-12-3 15:35 | 只看该作者
有空去看看
回复 支持 反对

使用道具 举报

9#
发表于 2016-12-3 23:13 | 只看该作者
Scan type : Progressive
回复 支持 反对

使用道具 举报

10#
发表于 2016-12-4 09:31 | 只看该作者
强烈支持楼主ing……
回复 支持 反对

使用道具 举报

您需要登录后才可以回帖 登录 | 立即注册

本版积分规则

关闭

推荐应用 上一条 /6 下一条

Archiver|新帖|标签|软件|Sitemap|ZNDS智能电视网 ( 浙ICP备14000780号 )

增值电信业务经营许可证:浙B2-20150411 丨 浙公网安备 33010802006145号

浙网文(2016)6491-366号 | GMT+8, 2017-10-19 13:14 , Processed in 0.084792 second(s), 24 queries , MemCache On.

Powered by Discuz!

监督举报:report#znds.com (请将#替换为@)

© 2007-2017 ZNDS.Com

快速回复 返回顶部 返回列表