首页 收藏 加入QQ群
开启辅助访问

QQ登录

只需一步,快速开始

扫一扫,访问微社区

立即注册 找回密码
查看: 1219|回复: 107
上一主题 下一主题
[4K电影]

[4K短片]美国犹他州峡谷地国家公园[2160P/MP4/1.27GB]

  [复制链接]
跳转到指定楼层
楼主
发表于 2016-12-1 19:56:13 | 只看该作者 |只看大图 回帖奖励 |倒序浏览 |阅读模式
[4K短片]美国犹他州峡谷地国家公园[2160P/MP4/1.27GB]
[4K短片]美国犹他州峡谷地国家公园[2160P/MP4/1.27GB]

峡谷地国家公园位于美国犹他州东南格林河和科罗拉多河汇合处,系多年河流冲刷和风霜雨雪侵蚀而成的砂岩塔、峡谷等,成为世界上最著名的侵蚀区域之一,以峰峦险恶、怪石嶙峋著称。1964年9月12日正式建为公园,占地面积1366平方公里。峡谷地国家公园幅员辽阔,景观是广漠无边的大,八荒九垓的阔。园内有依其形状、颜色及各种特征取名的台地、峡谷等景观,如黄金梯、大象峡、魔鬼蓬、天仙岛、娃娃石、挂毯石、马蹄谷,还有壮观台、石阵等。动物有鹿、狐和郊狼等。是一片规模巨大、大开大阖的荒野风光。这里没有公路,所谓路,全部是四轮驱动越野车才能通行的小道,是整个美国公认的人类最难以进入的地区之一。

General
Complete name : Canyonlands National Park, Utah, USA in 4K (Ultra HD).mp4
Format : MPEG-4
Format profile : Base Media
Codec ID : isom (isom/iso2/avc1/mp41)
File size : 1.27 GiB
Duration : 12 min 14 s
Overall bit rate : 14.8 Mbps
Writing application : Lavf56.25.101

Video
ID : 1
Format : AVC
Format/Info : Advanced Video Codec
Format profile : High@L5.1
Format settings, CABAC : No
Format settings, ReFrames : 2 frames
Codec ID : avc1
Codec ID/Info : Advanced Video Coding
Duration : 12 min 14 s
Bit rate : 14.7 Mbps
Width : 3840 pixels
Height : 2160 pixels
Display aspect ratio : 16:9
Frame rate mode : Constant
Frame rate : 29.970 (30000/1001) FPS
Color space : YUV
Chroma subsampling : 4:2:0
Bit depth : 8 bits
Scan type : Progressive
Bits/(Pixel*Frame) : 0.059
Stream size : 1.26 GiB (99%)
Color range : Limited
Color primaries : BT.709
Transfer characteristics : BT.709
Matrix coefficients : BT.709

Audio
ID : 2
Format : AAC
Format/Info : Advanced Audio Codec
Mode extension : LC
Codec ID : 40
Duration : 12 min 14 s
Bit rate mode : Constant
Bit rate : 126 kbps  
Channel(s) : 2 channels
Channel positions : Front: L R
Sampling rate : 44.1 KHz
Frame rate : 43.066 FPS (1024 spf)
Compression mode : Lossy
Stream size : 11.0 MiB (1%)
Default : Yes
Altternate group : 1
[4K短片]美国犹他州峡谷地国家公园[2160P/MP4/1.27GB]
[4K短片]美国犹他州峡谷地国家公园[2160P/MP4/1.27GB]
[4K短片]美国犹他州峡谷地国家公园[2160P/MP4/1.27GB]
[4K短片]美国犹他州峡谷地国家公园[2160P/MP4/1.27GB]
[4K短片]美国犹他州峡谷地国家公园[2160P/MP4/1.27GB]
[4K短片]美国犹他州峡谷地国家公园[2160P/MP4/1.27GB]
[4K短片]美国犹他州峡谷地国家公园[2160P/MP4/1.27GB]
[4K短片]美国犹他州峡谷地国家公园[2160P/MP4/1.27GB]
[4K短片]美国犹他州峡谷地国家公园[2160P/MP4/1.27GB]
[4K短片]美国犹他州峡谷地国家公园[2160P/MP4/1.27GB]
[4K短片]美国犹他州峡谷地国家公园[2160P/MP4/1.27GB]
[4K短片]美国犹他州峡谷地国家公园[2160P/MP4/1.27GB]
[4K短片]美国犹他州峡谷地国家公园[2160P/MP4/1.27GB]
[4K短片]美国犹他州峡谷地国家公园[2160P/MP4/1.27GB]
[4K短片]美国犹他州峡谷地国家公园[2160P/MP4/1.27GB]


MP4百度云盘
游客,如果您要查看本帖隐藏内容请回复
沙发
发表于 2016-12-1 20:06:03 | 只看该作者
强烈支持楼主ing……
回复 支持 反对

使用道具 举报

板凳
发表于 2016-12-1 20:06:43 | 只看该作者
强烈支持楼主ing……
回复 支持 反对

使用道具 举报

地板
发表于 2016-12-1 20:14:18 | 只看该作者
快快快,看看是否是小
回复 支持 反对

使用道具 举报

5#
发表于 2016-12-1 20:25:06 | 只看该作者
强烈支持楼主ing……
回复 支持 反对

使用道具 举报

6#
发表于 2016-12-1 20:38:31 | 只看该作者
楼主用心了,内容非常精彩。
回复 支持 反对

使用道具 举报

7#
发表于 2016-12-1 20:40:37 | 只看该作者
强烈支持楼主ing……
回复 支持 反对

使用道具 举报

8#
发表于 2016-12-1 20:53:58 | 只看该作者
[4K短片]美国犹他州峡谷地国家公园[2160P/MP4/1.27GB]
回复 支持 反对

使用道具 举报

9#
发表于 2016-12-1 22:00:24 | 只看该作者
强烈支持楼主ing……
回复 支持 反对

使用道具 举报

10#
匿名  发表于 2016-12-1 22:26:16
把答案
回复 支持 反对

使用道具

您需要登录后才可以回帖 登录 | 立即注册

本版积分规则

关闭

站长推荐 上一条 /4 下一条

Archiver|新帖|标签|软件|Sitemap|ZNDS智能电视网 ( 浙ICP备14000780号 )  

增值电信业务经营许可证:浙B2-20150411 丨 杭州市公安局滨江分局备案编号:33010820000271

GMT+8, 2016-12-11 08:12 , Processed in 0.142989 second(s), 24 queries , Gzip On, Memcache On.

Powered by Discuz!

监督举报:report@znds.com

© 2007-2016 ZNDS.Com

快速回复 返回顶部 返回列表