首页 收藏 QQ群
 网站导航
开启辅助访问

QQ登录

只需一步,快速开始

扫一扫,访问微社区

立即注册 找回密码
查看: 212247|回复: 963
[1080P短片]

[高清短片] IMAX倒计时 (DTS 5.1环绕声)[1080P/MKV/52.4MB]

  [复制链接]
发表于 2017-3-31 23:19 | 显示全部楼层 |阅读模式
[高清短片] IMAX倒计时 (DTS 5.1环绕声)[1080P/MKV/52.4MB]
IMAX_Countdown_Sonic_Anthem_believe_1080p.mkv__2017_01.jpg IMAX_Countdown_Sonic_Anthem_believe_1080p.mkv__2017_02.jpg IMAX_Countdown_Sonic_Anthem_believe_1080p.mkv_2017_03.jpg IMAX_Countdown_Sonic_Anthem_believe_1080p.mkv_2017_04.jpg IMAX_Countdown_Sonic_Anthem_believe_1080p.mkv_2017_05.jpg IMAX_Countdown_Sonic_Anthem_believe_1080p.mkv_2017_06.jpg IMAX_Countdown_Sonic_Anthem_believe_1080p.mkv_2017_07.jpg IMAX_Countdown_Sonic_Anthem_believe_1080p.mkv_2017_08.jpg IMAX_Countdown_Sonic_Anthem_believe_1080p.mkv_2017_09.jpg
General
Unique ID : 203171054927524203172178618416257183291 (0x98D95264E09A4D588E7714D5F76A2E3B)
Complete name : IMAX_Countdown_Sonic_Anthem_believe_1080p.mkv
Format : Matroska
Format version : Version 4 / Version 2
File size : 52.4 MiB
Duration : 52 s 148 ms
Overall bit rate mode : Variable
Overall bit rate : 8434 kbps
Encoded date : UTC 2016-11-09 22:09:15
Writing application : mkvmerge v9.1.0 ('Little Earthquakes') 64bit
Writing library : libebml v1.3.3 + libmatroska v1.4.4

Video
ID : 1
Format : AVC
Format/Info : Advanced Video Codec
Format profile : High@L4.1
Format settings, CABAC : Yes
Format settings, ReFrames : 3 frames
Codec ID : V_MPEG4/ISO/AVC
Duration : 49 s 375 ms
Bit rate mode : Variable
Bit rate : 8 138 kbps
Maximum bit rate : 25.0 Mbps
Width : 1920 pixels
Height : 1080 pixels
Display aspect ratio : 16:9
Frame rate mode : Constant
Frame rate : 24.000 FPS
Color space : YUV
Chroma subsampling : 4:2:0
Bit depth : 8 bits
Scan type : Progressive
Bits/(Pixel*Frame) : 0.164
Stream size : 47.9 MiB (91%)
Default : Yes
Forced : No

Audio
ID : 2
Format : DTS
Format/Info : Digital Theater Systems
Mode : 16
Format settings, Endianness : Big
Codec ID : A_DTS
Duration : 50 s 48 ms
Bit rate mode : Constant
Bit rate : 756 kbps
Channel(s) : 6 channels
Channel positions : Front: L C R, Side: L R, LFE
Sampling rate : 48.0 kHz
Frame rate : 93.750 FPS (512 spf)
Bit depth : 16 bits
Compression mode : Lossy
Delay relative to video : 2 s 100 ms
Stream size : 4.51 MiB (9%)
Language : English
Default : Yes
Forced : No


1080P MKV百度云盘
游客,如果您要查看本帖隐藏内容请回复

上一篇:[高清短片] IMAX倒计时 (AC-3 5.1环绕声)[1080P/MP4/70.7MB]
下一篇:Emanuela - Gazar badi [2160P/MP4/376M/百度]
发表于 2017-4-1 06:51 | 显示全部楼层
强烈支持楼主ing……
回复 支持 反对

使用道具 举报

发表于 2017-4-1 10:45 | 显示全部楼层
要的就是他。。。。
回复 支持 反对

使用道具 举报

发表于 2017-4-1 11:17 | 显示全部楼层
看看这个是什么
回复 支持 反对

使用道具 举报

发表于 2017-4-1 12:35 | 显示全部楼层
很给力,ZNDS有你更精彩!
回复 支持 反对

使用道具 举报

发表于 2017-4-1 21:01 | 显示全部楼层
谢谢
回复 支持 反对

使用道具 举报

发表于 2017-4-1 21:07 | 显示全部楼层
强烈支持楼主ing……
回复 支持 反对

使用道具 举报

发表于 2017-4-1 23:42 | 显示全部楼层
楼主用心了,内容非常精彩。
回复 支持 反对

使用道具 举报

发表于 2017-4-1 23:56 | 显示全部楼层
5.1喜欢!收起来试试!
回复 支持 反对

使用道具 举报

发表于 2017-4-2 00:01 | 显示全部楼层
强烈支持楼主ing……
回复 支持 反对

使用道具 举报

发表于 2017-4-2 09:05 | 显示全部楼层
强烈支持楼主ing……
回复 支持 反对

使用道具 举报

发表于 2017-4-5 10:18 | 显示全部楼层
支持了
回复 支持 反对

使用道具 举报

发表于 2017-4-5 16:34 | 显示全部楼层
谢谢分享
回复 支持 反对

使用道具 举报

发表于 2017-4-5 16:46 | 显示全部楼层
强烈支持楼主ing……
回复 支持 反对

使用道具 举报

发表于 2017-4-5 20:38 | 显示全部楼层
111111111
回复 支持 反对

使用道具 举报

您需要登录后才可以回帖 登录 | 立即注册

本版积分规则

关闭

推荐应用 上一条 /6 下一条

Archiver|新帖|标签|软件|Sitemap|ZNDS智能电视网 ( 浙ICP备14000780号 )

增值电信业务经营许可证:浙B2-20150411 丨 浙公网安备 33010802006145号

浙网文(2016)6491-366号 | GMT+8, 2019-2-23 06:11 , Processed in 0.338167 second(s), 27 queries , MemCache On.

Powered by Discuz!

监督举报:report#znds.com (请将#替换为@)

© 2007-2019 ZNDS.Com

快速回复 返回顶部 返回列表