首页 收藏 QQ群
 网站导航
开启辅助访问

QQ登录

只需一步,快速开始

扫一扫,访问微社区

立即注册 找回密码
查看: 7751|回复: 461
[4K视频]

[4K(超高清)自然纪录片]南美洲野生动物奇观 2017[2160P/MKV/6....

  [复制链接]
发表于 2017-6-20 00:31:41 | 显示全部楼层 |阅读模式
本帖最后由 klpoij89 于 2017-6-20 23:29 编辑

[4K(超高清)自然纪录片] 南美洲野生动物奇观 2017 [2160P/MKV/6.15GB]
(无配乐大自然的声音)
Wildlife Wonders of South America  4K RELAXATION VIDEO Chile & Bolivia (Nature S.png General
Unique ID : 189004430794658430912497311968647793442 (0x8E30EDE5E119E35B90AD8318E8CD4B22)
Complete name : Wildlife Wonders of South America  4K RELAXATION VIDEO Chile & Bolivia (Nature Sounds Only),Мастер5.mkv
Format : Matroska
Format version : Version 4 / Version 2
File size : 6.15 GiB
Duration : 1 h 0 min
Overall bit rate : 14.5 Mbps
Movie name : Wildlife Wonders of South America  4K RELAXATION VIDEO Chile & Bolivia (Nature Sounds Only),Мастер5
Encoded date : UTC 2017-06-06 17:51:46
Writing application : mkvmerge v8.1.0 ('Psychedelic Postcard') 32bit
Writing library : libebml v1.3.1 + libmatroska v1.4.2

Video
ID : 1
Format : AVC
Format/Info : Advanced Video Codec
Format profile : High@L5.1
Format settings, CABAC : No
Format settings, ReFrames : 2 frames
Codec ID : V_MPEG4/ISO/AVC
Duration : 1 h 0 min
Bit rate : 14.4 Mbps
Width : 3840 pixels
Height : 2160 pixels
Display aspect ratio : 16:9
Frame rate mode : Constant
Frame rate : 23.976 (24000/1001) FPS
Color space : YUV
Chroma subsampling : 4:2:0
Bit depth : 8 bits
Scan type : Progressive
Bits/(Pixel*Frame) : 0.072
Stream size : 6.10 GiB (99%)
Title : Wildlife Wonders of South America  4K RELAXATION VIDEO Chile & Bolivia (Nature Sounds Only),Мастер5
Default : Yes
Forced : No
Color range : Limited
Color primaries : BT.709
Transfer characteristics : BT.709
Matrix coefficients : BT.709

Audio
ID : 2
Format : AAC
Format/Info : Advanced Audio Codec
Format profile : LC
Codec ID : A_AAC
Duration : 1 h 0 min
Bit rate : 126 kbps
Channel(s) : 2 channels
Channel positions : Front: L R
Sampling rate : 44.1 kHz
Frame rate : 43.066 FPS (1024 spf)
Compression mode : Lossy
Stream size : 54.6 MiB (1%)
Default : Yes
Forced : No
Wildlife Wonders of South America  4K RELAXATION VIDEO Chile & Bolivia (Nature S.png Wildlife Wonders of South America  4K RELAXATION VIDEO Chile & Bolivia (Nature S.png Wildlife Wonders of South America  4K RELAXATION VIDEO Chile & Bolivia (Nature S.png Wildlife Wonders of South America  4K RELAXATION VIDEO Chile & Bolivia (Nature S.png Wildlife Wonders of South America  4K RELAXATION VIDEO Chile & Bolivia (Nature S.png Wildlife Wonders of South America  4K RELAXATION VIDEO Chile & Bolivia (Nature S.png Wildlife Wonders of South America  4K RELAXATION VIDEO Chile & Bolivia (Nature S.png Wildlife Wonders of South America  4K RELAXATION VIDEO Chile & Bolivia (Nature S.png Wildlife Wonders of South America  4K RELAXATION VIDEO Chile & Bolivia (Nature S.png Wildlife Wonders of South America  4K RELAXATION VIDEO Chile & Bolivia (Nature S.png Wildlife Wonders of South America  4K RELAXATION VIDEO Chile & Bolivia (Nature S.png Wildlife Wonders of South America  4K RELAXATION VIDEO Chile & Bolivia (Nature S.png Wildlife Wonders of South America  4K RELAXATION VIDEO Chile & Bolivia (Nature S.png Wildlife Wonders of South America  4K RELAXATION VIDEO Chile & Bolivia (Nature S.png Wildlife Wonders of South America  4K RELAXATION VIDEO Chile & Bolivia (Nature S.png Wildlife Wonders of South America  4K RELAXATION VIDEO Chile & Bolivia (Nature S.png Wildlife Wonders of South America  4K RELAXATION VIDEO Chile & Bolivia (Nature S.png Wildlife Wonders of South America  4K RELAXATION VIDEO Chile & Bolivia (Nature S.png 建议使用极速迅雷来高速下载!最高峰值12MB

播放器: Potplaye/MPC-HC

BT种子文件下载

游客,如果您要查看本帖隐藏内容请回复

发表于 2017-6-20 05:22:26 | 显示全部楼层
看看
回复 支持 反对

使用道具 举报

发表于 2017-6-20 05:26:10 | 显示全部楼层
自然纪录片]南美洲野生动物奇观
回复 支持 反对

使用道具 举报

发表于 2017-6-20 07:19:45 | 显示全部楼层
强烈支持楼主ing……
回复 支持 反对

使用道具 举报

发表于 2017-6-20 07:49:10 | 显示全部楼层
强烈支持楼主ing……
回复 支持 反对

使用道具 举报

发表于 2017-6-20 08:44:43 | 显示全部楼层
精华内容,楼主V5!
回复 支持 反对

使用道具 举报

发表于 2017-6-20 09:29:40 | 显示全部楼层
很给力,ZNDS有你更精彩!
回复 支持 反对

使用道具 举报

发表于 2017-6-20 09:37:46 | 显示全部楼层
家乡天堂岛
回复 支持 反对

使用道具 举报

发表于 2017-6-20 09:58:39 | 显示全部楼层
很给力,ZNDS有你更精彩!
回复 支持 反对

使用道具 举报

发表于 2017-6-20 10:21:05 | 显示全部楼层
kodi
回复 支持 反对

使用道具 举报

您需要登录后才可以回帖 登录 | 立即注册

本版积分规则

关闭

站长推荐 上一条 /5 下一条

Archiver|新帖|标签|软件|Sitemap|ZNDS智能电视网 ( 浙ICP备14000780号 )  

增值电信业务经营许可证:浙B2-20150411 丨 浙公网安备 33010802006145号

浙网文(2016)6491-366号 | GMT+8, 2017-8-24 05:30 , Processed in 0.168326 second(s), 22 queries , Memcache On.

Powered by Discuz!

监督举报:report#znds.com (请将#替换为@)

© 2007-2017 ZNDS.Com

快速回复 返回顶部 返回列表